Камерний хор "Cantemus" - Українське Різдво (2005) [FLAC] | Chorus

Нові коментарі

Нова тема   Відповісти
Автор Повідомлення
StefFanKo 
Новенький


З нами з: 17.09.13
Востаннє: 25.02.17
Повідомлень: 23

2017-01-01 18:29  
Камерний хор "Cantemus" - Українське Різдво (2005) [FLAC] | Chorus

Камерний хор "Cantemus" - Українське Різдво (2005) [FLAC] | Chorus


Стиль: Christian Classic
Країна, місто: Україна, Івано-Франківськ
Видавець: Монастир ЧСВВ
Пісні:
    01 Бог Предвічний
    02 Дзвони дзвонять
    03 Що то за предиво
    04 Янголи в небі
    05 Христос родився
    06 По всьому світу
    07 Дивная новина
    08 Вселенная, веселися
    09 Небо і земля
    10 Свята ніч
    11 Нова радість стала
    12 Днесь поюще
    13 У Вифлеємі
    14 На небі зірка
    15 Добрий вечір, Тобі
    16 Щедрик
    17 Чи дома, дома
    18 В господаренька
    19 Щедрівка

Тривалість: 00:60:00
Мова: українська
Аудіо-кодек: FLAC
Бітрейт: 668 кб/с
Джерело: власний ріп
Звіт ЕАС про видобування:
Exact Audio Copy V1.0 beta 4 from 7. December 2014

Отчёт EAC об извлечении, выполненном 26. февраля 2015, 16:23

- / Українське Різдво

Дисковод: TEAC CD-W552G Adapter: 0 ID: 0

Режим чтения : Достоверность
Использование точного потока : Да
Отключение кэша аудио : Да
Использование указателей C2 : Нет

Коррекция смещения при чтении : 6
Способность читать области Lead-in и Lead-out : Нет
Заполнение пропущенных сэмплов тишиной : Да
Удаление блоков с тишиной в начале и конце : Нет
При вычислениях CRC использовались нулевые сэмплы : Да
Интерфейс : Установленный внешний ASPI-интерфейс

Выходной формат : Пользовательский кодировщик
Выбранный битрейт : 1024 kBit/s
Качество : Высокий
Добавление ID3-тега : Да
Утилита сжатия : C:\Program Files\Exact Audio Copy\Flac\flac.exe
Дополнительные параметры : -V -8 -T "Date=%year%" -T "Genre=%genre%" %source%

TOC извлечённого CD

Трек | Старт | Длительность | Начальный сектор | Конечный сектор
---------------------------------------------------------------------
1 | 0:00.00 | 3:44.67 | 0 | 16866
2 | 3:44.67 | 2:42.02 | 16867 | 29018
3 | 6:26.69 | 3:13.09 | 29019 | 43502
4 | 9:40.03 | 3:10.27 | 43503 | 57779
5 | 12:50.30 | 3:08.61 | 57780 | 71940
6 | 15:59.16 | 3:03.18 | 71941 | 85683
7 | 19:02.34 | 4:17.10 | 85684 | 104968
8 | 23:19.44 | 2:17.34 | 104969 | 115277
9 | 25:37.03 | 3:45.18 | 115278 | 132170
10 | 29:22.21 | 3:58.27 | 132171 | 150047
11 | 33:20.48 | 3:43.54 | 150048 | 166826
12 | 37:04.27 | 3:19.21 | 166827 | 181772
13 | 40:23.48 | 3:51.68 | 181773 | 199165
14 | 44:15.41 | 2:17.49 | 199166 | 209489
15 | 46:33.15 | 4:43.29 | 209490 | 230743
16 | 51:16.44 | 2:11.13 | 230744 | 240581
17 | 53:27.57 | 1:57.25 | 240582 | 249381
18 | 55:25.07 | 3:50.69 | 249382 | 266700
19 | 59:16.01 | 1:54.55 | 266701 | 275305

Характеристики диапазона извлечения и сообщения об ошибках

Выбранный диапазон

Имя файла D:\Українське різдво CANTEMUS\Українське Різдво.wav

Пиковый уровень 91.8 %
Скорость извлечения 6.1 X
Качество диапазона 100.0 %
CRC теста 1D61A6FE
CRC копии 1D61A6FE
Копирование... OK

Ошибок не произошло

Конец отчёта

==== Контрольная сумма отчёта F343D0B2BBD725DDAE20A90D3F239F8F123B6627C2823CAFA9C0111B5EAF9274 ====
Якщо Ви справді бажаєте підтримати українське - після прослуховування, якщо музика вам сподобалась, придбайте ліцензійний диск. Підтримаймо вітчизняних виконавців!


Срібний реліз (на рейтинг впливає 50% завантаженого)
 Трекер:    Зареєстрований   

Завантажити / скачати українську музику



відео для новачків



 Зареєстрований:   2017-01-01 18:29
 Розмір:   299 MB 
 Оцінка музики:   10/10 (Голосів: 4)
   
Ваш часовий пояс: GMT + 2 Години

Нова тема   Відповісти