Зломщик! Зломщик! / Breaker! Breaker! (1977) 720p Ukr/Eng

Нові коментарі

Нова тема   Відповісти
Останній раз роздавалося михалыч55555 (2017-10-23)
Автор Повідомлення
staf777 
Відео Гуртом - підтримка та поширення
Відео Гуртом - підтримка та поширення


З нами з: 16.11.16
Востаннє: 22.10.17
Повідомлень: 522

2017-01-01 18:08  
Зломщик! Зломщик! / Breaker! Breaker! (1977) 720p Ukr/Eng

Зломщик! Зломщик! / Breaker! Breaker! (1977) 720p Ukr/Eng


Жанр: пригодницький, бойовик
Країна: США



Режисер: Дон Гьюллет / Don Hulette
Актори: Чак Норріс / Chuck Norris, Джордж Мердок / George Murdock, Террі О'соннор / Terry O'connor, Дон Джентрі / Don Gentry, Джон Діфаско / John Difusco, Рон Седільос / Ron Cedillos, Майкл Огенштайн / Michael Augenstein, Ден Вендегріфт / Dan Vandegrift

Сюжет:
Водій вантажівки посилає свого меншого брата у перший рейс по Каліфорнії. Але той раптом зникає.
Всі сліди ведуть до корумпованого містечка Тексес Сіті, і Джей Ді (Чак Норріс) вирушає на пошуки брата...


Тривалість: 01:18:25
Якість: 720p
Відео:
кодек:
розмір кадру: 1280x694
бітрейт: 11,7 Мбіт/с

Аудіо # 1:
мова: українська
переклад: багатоголосий закадровий
кодек: 2.0
бітрейт: 192 кб/с

Аудіо # 2:
мова: англійська
переклад: оригінал
кодек: FLAC 2.0
бітрейт: 331 кб/с
Info
General
Unique ID : 202035696699019997646458827653438464840 (0x97FEA8E95BF112B2BE860812B6CB6348)
Complete name : F:\Боевик\Breaker! Breaker! (1977) [Ukr,Eng ] 720p [Hurtom].
Format :
Format version : Version 4 / Version 2
File size : 7.23 GiB
Duration : 1h 24mn
Overall bit rate mode : Variable
Overall bit rate : 12.2 Mbps
Movie name : Breaker! Breaker! (1977) [Ukr,Eng ] 720p [Hurtom]
Encoded date : UTC 2017-01-02 12:23:08
Writing application : mkvmerge v9.5.0 ('Quiet Fire') 64bit
Writing library : libebml v1.3.4 + libmatroska v1.4.5
Attachements : cover.jpg

Video
ID : 1
Format : AVC
Format/Info : Advanced Video Codec
Format profile : [email protected]
Format settings, CABAC : Yes
Format settings, ReFrames : 9 frames
Codec ID : V_MPEG4/ISO/AVC
Duration : 1h 24mn
Bit rate : 11.7 Mbps
Width : 1 280 pixels
Height : 694 pixels
Display aspect ratio : 1.85:1
Frame rate mode : Constant
Frame rate : 23.976 (23976/1000) fps
Color space : YUV
Chroma subsampling : 4:2:0
Bit depth : 8 bits
Scan type : Progressive
Bits/(Pixel*Frame) : 0.549
Stream size : 6.92 GiB (96%)
Title : Breaker! Breaker! (1977)
Writing library : core 148 r2721kMod 72d53ab
Encoding settings : cabac=1 / ref=9 / deblock=1:-3:-3 / analyse=0x3:0x133 / me=umh / subme=10 / psy=1 / fade_compensate=0.00 / psy_rd=1.00:0.05 / mixed_ref=1 / me_range=24 / chroma_me=1 / trellis=2 / 8x8dct=1 / cqm=0 / deadzone=21,11 / fast_pskip=1 / chroma_qp_offset=-3 / threads=6 / lookahead_threads=1 / sliced_threads=0 / nr=0 / decimate=1 / interlaced=0 / bluray_compat=0 / constrained_intra=0 / fgo=0 / bframes=8 / b_pyramid=2 / b_adapt=2 / b_bias=0 / direct=3 / weightb=1 / open_gop=0 / weightp=2 / keyint=250 / keyint_min=23 / scenecut=40 / intra_refresh=0 / rc=2pass / mbtree=0 / bitrate=11700 / ratetol=1.0 / qcomp=0.60 / qpmin=0 / qpmax=69 / qpstep=4 / cplxblur=20.0 / qblur=0.5 / ip_ratio=1.35 / pb_ratio=1.25 / aq=1:0.75
Language : English
Default : Yes
Forced : No
Color range : Limited
Matrix coefficients : BT.709

Audio #1
ID : 2
Format : AC-3
Format/Info : Audio Coding 3
Mode extension : CM (complete main)
Format settings, Endianness : Big
Codec ID : A_AC3
Duration : 1h 24mn
Bit rate mode : Constant
Bit rate : 192 Kbps
Channel(s) : 2 channels
Channel positions : Front: L R
Sampling rate : 48.0 KHz
Frame rate : 31.250 fps (1536 spf)
Compression mode : Lossy
Stream size : 116 MiB (2%)
Title : UA-MVO
Language : Ukrainian
Default : Yes
Forced : Yes

Audio #2
ID : 3
Format : FLAC
Format/Info : Free Lossless Audio Codec
Codec ID : A_FLAC
Duration : 1h 24mn
Bit rate mode : Variable
Bit rate : 331 Kbps
Channel(s) : 2 channels
Channel positions : Front: L R
Sampling rate : 48.0 KHz
Frame rate : 11.719 fps (4096 spf)
Bit depth : 16 bits
Stream size : 201 MiB (3%)
Title : ORIGINAL
Writing library : libFLAC 1.2.1 (UTC 2007-09-17)
Language : English
Default : No
Forced : No
Скріншоти





Джерело: &
Подяка dovan'у, за україномовну звукову доріжку!
Пану Musketeer за українізований постер!

Особиста оцінка: 0 - не дивився


Срібний реліз (на рейтинг впливає 50% завантаженого)
 Трекер:    Зареєстрований   

Завантажити / скачати фільм українською



відео для новачків



 Зареєстрований:   2017-01-02 18:48
 Розмір:   7.23 GB 
 Оцінка фільму:   9.3/10 (Голосів: 3)
   
Інші релізи
   Зломщик! Зломщик! / Breaker! Breaker! (1977) Ukr/Eng Arsenfpu  2 / 0   1.57 GB   2017-01-23 00:53 
bahtin 
VIP


З нами з: 17.11.07
Востаннє: 22.10.17
Повідомлень: 263

2017-01-02 20:47  
Через років 15 сюжет цього фільму був обіграний у одній з серій Техаського Рейнджера... Сюжет незамислуватий. Але дивився лише заради молодого Чака Норріса. Без сучасних спецефектів, просто ногою з розвороту по морді Happy
Ваш часовий пояс: GMT + 2 Години

Нова тема   Відповісти