Спляча красуня / Sleeping Beauty (1959) 720p Ukr/Eng | Sub Eng

Нові коментарі

Нова тема   Відповісти
Автор Повідомлення
staf777 
Відео Гуртом - підтримка та поширення
Відео Гуртом - підтримка та поширення


З нами з: 16.11.16
Востаннє: 16.08.17
Повідомлень: 522

2017-01-01 13:25  
Спляча красуня / Sleeping Beauty (1959) 720p Ukr/Eng | Sub Eng

Спляча красуня / Sleeping Beauty (1959) 720p Ukr/Eng | Sub Eng


Жанр: анімація, сімейний, мюзикл, казка
Країна: США



Кінокомпанія: Walt Disney Productions
Режисер: Клайд Джеронімі
Ролі озвучують:
В оригіналі: Мері Коста, Білл Ширлі, Елеонор Одлі, Верна Фелтон, Барбара Ладі, Барбара Джо Ален, Тейлор Холмс, Білл, Томпсон
Українською: Володимир Нечепоренко (оповідач), Сергій Юрченко (Принц), Олександр Ігнатуша (король Губерт), Ірина Дорошенко (Флора), Олена Узлюк (Миле Сонечко)
Сюжет:
Давно це було, в одній далекій землі жили собі король з королевою. Багато років чекали вони дітей і нарешті їхня мрія здійснилась: народилась у них донька, і назвали вони її Авророю. ЇЇ назвали на честь богині світанку, вона наповнила їхнє життя сонячним світлом. І тоді в королівстві влаштували свято. І кожен, хоч багатий, хоч бідний, міг вшанувати ім'я принцеси. На бал запросили трьох добрих фей - пані Флору, пані Фауну та пані Миле Сонечко. Але про Злу Чаклунку не згадали. Ображена чаклунка зачарувала принцесу. У день коли їй виповниться 16 років, дівчина вколеться об веретено і засне вічним сном. Але добрі феї зробили так, що принцеса прокинеться тоді, коли її поцілує прекрасний принц.


Тривалість: 01:15:10
Якість: 720p
Відео:
кодек:
розмір кадру: 1280x502
бітрейт: 4541 кб/с

Аудіо # 1:
мова: українська
переклад: професійний дубльований
кодек: 5.1
бітрейт: 384 кб/с

Аудіо # 2:
мова: англійська
переклад: оригінал
кодек: 5.1
бітрейт: 1509 кб/с

Субтитри:
мова: англійська
тип: програмні (м'які)
формат: *.srt
Info
General
Unique ID : 182605080598309371684524631547885542471 (0x89607592DC1C890E8DE159B11FBE5C47)
Complete name : F:\Мульты\Sleeping Beauty (1959) [Ukr,Eng sub.Eng] 720p [Hurtom].
Format :
Format version : Version 4 / Version 2
File size : 3.38 GiB
Duration : 1h 15mn
Overall bit rate : 6 437 Kbps
Movie name : Sleeping Beauty (1959) [Ukr,Eng sub.Eng] 720p [Hurtom]
Encoded date : UTC 2017-01-01 10:45:36
Writing application : mkvmerge v9.5.0 ('Quiet Fire') 64bit
Writing library : libebml v1.3.4 + libmatroska v1.4.5
Attachements : cover.jpg..jpg

Video
ID : 1
Format : AVC
Format/Info : Advanced Video Codec
Format profile : [email protected]
Format settings, CABAC : Yes
Format settings, ReFrames : 12 frames
Codec ID : V_MPEG4/ISO/AVC
Duration : 1h 15mn
Bit rate : 4 541 Kbps
Width : 1 280 pixels
Height : 502 pixels
Display aspect ratio : 2.550
Frame rate mode : Constant
Frame rate : 23.976 (24000/1001) fps
Color space : YUV
Chroma subsampling : 4:2:0
Bit depth : 8 bits
Scan type : Progressive
Bits/(Pixel*Frame) : 0.295
Stream size : 2.38 GiB (71%)
Title : Sleeping Beauty (1959) 720p
Writing library : core 142 r2431+42 c69a006 tMod [[email protected]:2:0 X86_64]
Encoding settings : cabac=1 / ref=12 / deblock=1:-3:-3 / analyse=0x3:0x133 / me=umh / subme=10 / psy=1 / fade_compensate=0.00 / psy_rd=0.65:0.00 / mixed_ref=1 / me_range=24 / chroma_me=1 / trellis=2 / 8x8dct=1 / cqm=0 / deadzone=21,11 / fast_pskip=1 / chroma_qp_offset=-2 / threads=12 / lookahead_threads=2 / sliced_threads=0 / nr=0 / decimate=1 / interlaced=0 / bluray_compat=0 / constrained_intra=0 / fgo=0 / bframes=7 / b_pyramid=2 / b_adapt=2 / b_bias=0 / direct=3 / weightb=1 / open_gop=0 / weightp=2 / keyint=250 / keyint_min=23 / scenecut=40 / intra_refresh=0 / rc=crf / mbtree=0 / crf=14.0000 / qcomp=0.75 / qpmin=0:0:0 / qpmax=69:69:69 / qpstep=4 / ip_ratio=1.30 / pb_ratio=1.20 / aq=4:1.00 / aq-sensitivity=10.00 / aq-factor=1.00:1.00:1.00 / aq2=0 / aq3=0
Language : English
Default : Yes
Forced : No
Color range : Limited
Matrix coefficients : BT.709

Audio #1
ID : 2
Format : AC-3
Format/Info : Audio Coding 3
Mode extension : CM (complete main)
Format settings, Endianness : Big
Codec ID : A_AC3
Duration : 1h 15mn
Bit rate mode : Constant
Bit rate : 384 Kbps
Channel(s) : 6 channels
Channel positions : Front: L C R, Side: L R, LFE
Sampling rate : 48.0 KHz
Frame rate : 31.250 fps (1536 spf)
Compression mode : Lossy
Stream size : 206 MiB (6%)
Title : UA-DUB
Language : Ukrainian
Default : Yes
Forced : Yes

Audio #2
ID : 3
Format :
Format/Info : Digital Theater Systems
Mode : 16
Format settings, Endianness : Big
Codec ID : A_DTS
Duration : 1h 15mn
Bit rate mode : Constant
Bit rate : 1 509 Kbps
Channel(s) : 6 channels
Channel positions : Front: L C R, Side: L R, LFE
Sampling rate : 48.0 KHz
Frame rate : 93.750 fps (512 spf)
Bit depth : 24 bits
Compression mode : Lossy
Stream size : 811 MiB (23%)
Title : Original
Language : English
Default : No
Forced : No

Text
ID : 4
Format : UTF-8
Codec ID : S_TEXT/UTF8
Codec ID/Info : UTF-8 Plain Text
Duration : 1h 14mn
Bit rate : 43 bps
Count of elements : 759
Stream size : 23.7 KiB (0%)
Language : English
Default : No
Forced : No
Скріншоти



Джерело: &
Подяка
xslim - за запис звуку з телеканалу ,
vizzi - за український постер,
rooster - за готову українську багатоканальну доріжку
Особиста оцінка: 10 - без зайвих вагань рекомендую всім!


Срібний реліз (на рейтинг впливає 50% завантаженого)
 Трекер:    Зареєстрований   

Завантажити / скачати мультфільм українською



відео для новачків



 Зареєстрований:   2017-01-01 14:14
 Розмір:   3.38 GB 
 Оцінка мультфільму:   10/10 (Голосів: 5)
   
Інші релізи
Ваш часовий пояс: GMT + 2 Години

Нова тема   Відповісти