Стартрек: За межами Всесвіту / Star Trek Beyond (2016) Remux 1080p Ukr/Eng | Sub Ukr/Eng

Нові коментарі

Нова тема   Відповісти
Автор Повідомлення
sickbrain 
Новенький


З нами з: 29.07.16
Востаннє: 15.09.19
Повідомлень: 5

2016-12-31 22:31  
Стартрек: За межами Всесвіту / Star Trek Beyond (2016) Remux 1080p Ukr/Eng | Sub Ukr/Eng

Стартрек: За межами Всесвіту / Star Trek Beyond (2016) Remux 1080p Ukr/Eng | Sub Ukr/Eng


Жанр: екшн, пригодницький, трилер, бойовик
Країна: США



Кінокомпанія: Paramount Pictures, Skydance Productions, Alibaba Pictures Group, Huahua Media, Bad Robot, Sneaky Shark, Perfect Storm Entertainment
Режисер: Джастін Лін / Justin Lin
Актори: Кріс Пайн / Chris Pine, Закарі Квінто / Zachary Quinto, Саймон Пегг / Simon Pegg, Карл Урбан / Karl Urban, Зоі Салдана / Zoe Saldana, Ідріс Ельба / Idris Elba, Софія Бутелла / Sofia Boutella, Джон Чо / John Cho, Шоре Агдашлу / Shohreh Aghdashloo та інші

Сюжет:
Від режисера "Форсажу" та популярного серіалу "Справжній детектив" Джастіна Ліна, а також продюсера "Вулиця Монстро, 10" і "Місія неможлива: Нація ізгоїв" Джей Джей Абрамса. Продовження фантастичних пригод екіпажу зоряного корабля "Ентерпрайз" на чолі з капітаном Т. Кірком. Під час місії на незвідану територію зоряне судно і команда були атаковані невідомими прибульцями. Їм довелося покинути "Ентерпрайз" і висадитися на планету, де немає ні зв'язку, ні засобів порятунку. Поки капітан Кірк намагається зібрати весь свій екіпаж і придумати як їм повернутися на Землю, на горизонті з'являється новий ворог.


Тривалість: 02:02:22
Якість: Remux 1080p
Відео:
кодек:
розмір кадру: 1920 х 1080
бітрейт: 26,8 Мб/с

Аудіо # 1:
мова: українська
переклад: професійний дубльований | студія LeDoyen
кодек: 5.1
бітрейт: 448 кб/с
Інформація про дубляж
Перекладач та автор синхронного тексту: Федір Сидорук
Режисер дубляжу: Костянтин Лінартович
Ролі дублювали:
Маркус - Валерій Легін,
Боунз - Борислав Борисенко,
Чехов (Антон Єльчін) - Андрій Федінчик,
Гаррісон/Хан - Андрій Мостренко,
Кірк (Кріс Пайн) - Іван Розін,
Пайк - Володимир Жогло,
Скотті (Саймон Пегг) - Дмитро Завадський,
Спок (Закарі Квінто) - Юрій Кудрявець,
Сулу (Джон Чо) - Дмитро Чернов,
Ухура (Зоі Салдана) - Анастасія Чумаченко
а також: Людмила Барбір, Іван Марченко, Анатолій Барчук, Андрій Мктрчан, Катерина Башкіна-Зленко, Кирило Нікітенко, Олена Борозенець, Олександр Пономаренко, Катерина Брайковська, Ганна Соболєва, Олексій Череватенко, Сергій Солопай, Роман Чорний, Юрій Сосков, В'ячеслав Дудко, Дмитро Сова, Олександр Герасимчук, Петро Сова, Катерина Качан, Анна Суздаль-Сагайдачна, Катерина Кістень, Ігор Тимошенко, Михайло Кришталь, Михайло Жонін, Костянтин Лінартович.

Фільм дубльовано студією LeDoyen.

Аудіо # 2:
мова: англійська
переклад: оригінал
кодек: 5.1
бітрейт: 1536 кб/с

Субтитри # 1-2 (Forced, Full):
мова: українська
тип: програмні (м'які)
формат: *.srt

Субтитри # 3-5 (Full, Forced, SDH):
мова: англійська
тип: програмні (м'які)
формат: *.srt
Info
General
Unique ID : 227242689742272887229811167289296403518 (0xAAF5599EF58AE7CCD8A63AC2ECC1BC3E)
Complete name : E:\Torrent\Star Trek Beyond Remux [Hurtom].
Format :
Format version : Version 4
File size : 24.6 GiB
Duration : 2 h 2 min
Overall bit rate mode : Variable
Overall bit rate : 28.8 Mb/s
Encoded date : UTC 2019-08-27 14:08:25
Writing application : v37.0.0 ('Leave It') 64-bit
Writing library : libebml v1.3.9 + v1.5.2
Cover : Yes
Attachments : cover

Video
ID : 1
Format : AVC
Format/Info : Advanced Video Codec
Format profile : [email protected]
Format settings : CABAC / 4 Ref Frames
Format settings, CABAC : Yes
Format settings, Reference frames : 4 frames
Codec ID : V_MPEG4/ISO/AVC
Duration : 2 h 2 min
Bit rate mode : Variable
Bit rate : 26.8 Mb/s
Maximum bit rate : 30.0 Mb/s
Width : 1 920 pixels
Height : 1 080 pixels
Display aspect ratio : 16:9
Frame rate mode : Constant
Frame rate : 23.976 (24000/1001) FPS
Color space : YUV
Chroma subsampling : 4:2:0
Bit depth : 8 bits
Scan type : Progressive
Bits/(Pixel*Frame) : 0.539
Stream size : 22.9 GiB (93%)
Default : Yes
Forced : No

Audio #1
ID : 2
Format : AC-3
Format/Info : Audio Coding 3
Commercial name : Dolby Digital
Codec ID : A_AC3
Duration : 2 h 2 min
Bit rate mode : Constant
Bit rate : 448 kb/s
Channel(s) : 6 channels
Channel layout : L R C LFE Ls Rs
Sampling rate : 48.0 kHz
Frame rate : 31.250 FPS (1536 SPF)
Bit depth : 16 bits
Compression mode : Lossy
Stream size : 392 MiB (2%)
Title : 5.1 @ 448 kbps
Language : Ukrainian
Service kind : Complete Main
Default : Yes
Forced : Yes

Audio #2
ID : 3
Format :
Format/Info : Digital Theater Systems
Codec ID : A_DTS
Duration : 2 h 2 min
Bit rate mode : Constant
Bit rate : 1 509 kb/s
Channel(s) : 6 channels
Channel layout : C L R Ls Rs LFE
Sampling rate : 48.0 kHz
Frame rate : 93.750 FPS (512 SPF)
Bit depth : 24 bits
Compression mode : Lossy
Stream size : 1.29 GiB (5%)
Title : 5.1 @ 1536 kbps
Language : English
Default : No
Forced : No

Text #1
ID : 4
Format : UTF-8
Codec ID : S_TEXT/UTF8
Codec ID/Info : UTF-8 Plain Text
Duration : 1 h 42 min
Bit rate : 1 b/s
Count of elements : 18
Stream size : 848 Bytes (0%)
Title : Forced
Language : Ukrainian
Default : Yes
Forced : Yes

Text #2
ID : 5
Format : UTF-8
Codec ID : S_TEXT/UTF8
Codec ID/Info : UTF-8 Plain Text
Duration : 2 h 0 min
Bit rate : 67 b/s
Count of elements : 1295
Stream size : 59.7 KiB (0%)
Title : Full
Language : Ukrainian
Default : No
Forced : No

Text #3
ID : 6
Format : UTF-8
Codec ID : S_TEXT/UTF8
Codec ID/Info : UTF-8 Plain Text
Duration : 1 h 51 min
Bit rate : 74 b/s
Count of elements : 1526
Stream size : 61.3 KiB (0%)
Title : Full
Language : English
Default : No
Forced : No

Text #4
ID : 7
Format : UTF-8
Codec ID : S_TEXT/UTF8
Codec ID/Info : UTF-8 Plain Text
Duration : 59 min 3 s
Bit rate : 0 b/s
Count of elements : 15
Stream size : 365 Bytes (0%)
Title : Forced
Language : English
Default : No
Forced : No

Text #5
ID : 8
Format : UTF-8
Codec ID : S_TEXT/UTF8
Codec ID/Info : UTF-8 Plain Text
Duration : 1 h 51 min
Bit rate : 58 b/s
Count of elements : 1527
Stream size : 47.5 KiB (0%)
Title : SDH
Language : English
Default : No
Forced : No

Menu
00:00:00.000 : en:Chapter 01
00:08:26.547 : en:Chapter 02
00:16:11.636 : en:Chapter 03
00:32:38.288 : en:Chapter 04
00:42:16.367 : en:Chapter 05
00:52:22.264 : en:Chapter 06
00:59:50.628 : en:Chapter 07
01:12:05.529 : en:Chapter 08
01:22:34.448 : en:Chapter 09
01:33:00.948 : en:Chapter 10
01:40:33.318 : en:Chapter 11
01:47:38.993 : en:Chapter 12
01:52:32.662 : en:Chapter 13
01:55:41.350 : en:Chapter 14
02:02:21.917 : en:Chapter 15
Скріншоти









Джерело: &
Особиста оцінка: 8 - мені сподобалося

Увага, 25.08.2019 у релізі було замінено українську доріжку 2.0 192 кб/с на 5.1 448 кб/с з


Золотий реліз (завантажене не впливає на рейтинг)
 Трекер:    Зареєстрований   

Завантажити / скачати фільм українською



відео для новачків



 Зареєстрований:   2019-08-27 18:21
 Розмір:   24.6 GB 
 Оцінка фільму:   10/10 (Голосів: 6)
   
Electroz 
Відео Гуртом - підтримка та поширення
Відео Гуртом - підтримка та поширення


З нами з: 18.09.14
Востаннє: 18.09.19
Повідомлень: 3581

2016-12-31 22:34  
повтор https://toloka.to/t78711
sickbrain 
Новенький


З нами з: 29.07.16
Востаннє: 15.09.19
Повідомлень: 5

2016-12-31 22:51  
Electroz
той реліз був видалений

igor911 
Модератор відео


З нами з: 18.01.08
Востаннє: 18.09.19
Повідомлень: 13357

2017-01-01 00:40  
sickbrain, за Правилами розділу HD скріншоти мають бути у форматі png, заміни.

Додано через 7 хвилин 37 секунд:

Electroz, такий бітрейт (27137) був на блуреї, тож 300 кб різниці в звітності тут не є помилкою.

Andy_H 
Новенький


З нами з: 20.03.12
Востаннє: 29.08.19
Повідомлень: 9

2017-01-04 20:01  
Від наукової фантастики нічого не лишилося, фантастика для підлітків.
Додивився через силу "за компанію".

Uberwinder 
VIP


З нами з: 18.11.16
Востаннє: 18.09.19
Повідомлень: 276

2017-02-25 16:16  
Якщо забагато від фільму не очікувати, то для перегляду "одним оком" у компанії цілком підійде.
Breton 
Новенький


З нами з: 26.05.12
Востаннє: 15.09.19
Повідомлень: 24

2017-02-25 18:53  
Фільм ніби нічого але не більше )
Argentum 
Поважний учасник


З нами з: 25.09.11
Востаннє: 17.09.19
Повідомлень: 207

2017-03-07 13:44  
sickbrain
а чи не планується оновлення звукової доріжки українською до 448 кб/с? Завчасно дякую

Pike007 
Новенький


З нами з: 08.09.16
Востаннє: 16.09.19
Повідомлень: 14

2018-02-07 21:51  
озвучення Чехова "мовою азірова" - чудова ідея, добавляє родзинки під час перегляду і сподобалось різним віковим категоріям нашої сім'ї Happy
[email protected] 
VIP


З нами з: 25.03.17
Востаннє: 18.09.19
Повідомлень: 346

2019-02-10 01:25  
Всі три фільми мені сподобались, моя оцінка 10
LastExile 
Новенький


З нами з: 25.09.10
Востаннє: 16.09.19
Повідомлень: 24

2019-08-22 09:52  
4k з кращою доріжкою не планується?
sickbrain 
Новенький


З нами з: 29.07.16
Востаннє: 15.09.19
Повідомлень: 5

2019-08-22 10:07  
LastExile
Постараюся зробити в найближчі дні

igor911 
Модератор відео


З нами з: 18.01.08
Востаннє: 18.09.19
Повідомлень: 13357

2019-08-25 18:04  
Info написано:
Encoded date : UTC 2016-12-31 14:06:18

треба оновити звіт Info

sickbrain 
Новенький


З нами з: 29.07.16
Востаннє: 15.09.19
Повідомлень: 5

2019-08-26 13:24  
LastExile
Цитата:
4k з кращою доріжкою не планується?


Ось https://toloka.to/t103520

igor911 
Модератор відео


З нами з: 18.01.08
Востаннє: 18.09.19
Повідомлень: 13357

2019-08-27 14:06  
sickbrain написано:
Аудіо # 2:
мова: українська


Правила відео https://toloka.to/t201 написано:
Українська доріжка повинна бути першою не тільки в описі, але і у самому відео.

Ваш часовий пояс: GMT + 2 Години

Нова тема   Відповісти