Дедпул / Deadpool (2016) Remux 1080p Ukr/Eng | Sub Ukr/Eng

Нові коментарі

Нова тема   Відповісти
Автор Повідомлення
staf777 
Попереджень: 1
Попереджень: 1 


З нами з: 16.11.16
Востаннє: 19.10.18
Повідомлень: 1637

2016-12-31 21:44  
Дедпул / Deadpool (2016) Remux 1080p Ukr/Eng | Sub Ukr/Eng

Дедпул / Deadpool (2016) Remux 1080p Ukr/Eng | Sub Ukr/Eng


Жанр: фантастика, екшн, комедія
Країна: США



Кінокомпанія: Twentieth Century Fox, Marvel Studios
Режисер: Тім Міллер
Актори: Раян Рейнольдс, Ті Джей Міллер, Ед Скрейн, Морена Баккарін, Рейчел Шин, Бріанна Гілдебранд, Стен Лі, Стефан Капічіч, Леслі Аґґамс та інші.

Сюжет:
Колишній солдат, що став найманцем спецназу, зазнав нестандартного експерименту, намагаючись вилікувати рак. Завдяки цьому Вейд Вілсон отримав підвищену здатність до зцілення, неймовірну силу і спритність, а також нестійкий психічний стан, що сформував особливий чорний гумор. Однак його шкіра виявилася знівеченою. В герої народжується нова особистість - Дедпул. Озброївшись новими здібностями і маніакальним почуттям гумору, Вейд Вілсон виходить на полювання за тією людиною, яка зруйнувала його життя і викрала кохану дівчину.


Тривалість: 01:47:48
Якість: Remux 1080p
Відео:
кодек:
розмір кадру: 1920x1080
бітрейт: 23,7 Mб/с

Аудіо # 1:
мова: українська
переклад: професійний дубльований
кодек: 5.1
бітрейт: 448 кб/с

Аудіо # 2:
мова: англійська
переклад: оригінал
кодек: -HD MA 7.1
бітрейт: 4892 кб/с

Аудіо # 3:
мова: англійська
переклад: коментарі
кодек: 2.0
бітрейт: 224 кб/с

Аудіо # 4:
мова: англійська
переклад: коментарі
кодек: 2.0
бітрейт: 224 кб/с

Субтитри # 1:
мова: українська
тип: пререндерні
формат: PGS

Субтитри # 2-5:
мова: англійська
тип: пререндерні
формат: PGS
Info
General
Unique ID : 249991184084585568638757818564726334471 (0xBC128CFC63483196B119B45E59EDA407)
Complete name : F:\Фантастика\Deadpool.2016.Remux.HDCLUB\BDMV\STREAM\[Ukr,Eng sub.Ukr,Eng]Remux 1080p [Hurtom].
Format :
Format version : Version 4 / Version 2
File size : 22.3 GiB
Duration : 1h 48mn
Overall bit rate mode : Variable
Overall bit rate : 29.5 Mbps
Movie name : Deadpool (2016) [Ukr,Eng sub.Ukr,Eng]Remux 1080p [Hurtom]
Encoded date : UTC 2017-01-02 10:10:14
Writing application : v9.5.0 ('Quiet Fire') 64bit
Writing library : libebml v1.3.4 + v1.4.5
Attachements : cover.jpg..jpg

Video
ID : 1
Format : AVC
Format/Info : Advanced Video Codec
Format profile : [email protected]
Format settings, CABAC : Yes
Format settings, ReFrames : 4 frames
Codec ID : V_MPEG4/ISO/AVC
Duration : 1h 48mn
Bit rate mode : Variable
Bit rate : 23.7 Mbps
Maximum bit rate : 33.0 Mbps
Width : 1 920 pixels
Height : 1 080 pixels
Display aspect ratio : 16:9
Frame rate mode : Constant
Frame rate : 23.976 (24000/1001) fps
Color space : YUV
Chroma subsampling : 4:2:0
Bit depth : 8 bits
Scan type : Progressive
Bits/(Pixel*Frame) : 0.476
Stream size : 17.9 GiB (80%)
Title : Deadpool (2016) Remux 1080p
Default : Yes
Forced : No

Audio #1
ID : 2
Format : AC-3
Format/Info : Audio Coding 3
Mode extension : CM (complete main)
Format settings, Endianness : Big
Codec ID : A_AC3
Duration : 1h 48mn
Bit rate mode : Constant
Bit rate : 448 Kbps
Channel(s) : 6 channels
Channel positions : Front: L C R, Side: L R, LFE
Sampling rate : 48.0 KHz
Frame rate : 31.250 fps (1536 spf)
Compression mode : Lossy
Stream size : 346 MiB (2%)
Title : UA-DUB
Language : Ukrainian
Default : Yes
Forced : Yes

Audio #2
ID : 3
Format :
Format/Info : Digital Theater Systems
Format profile : MA / ES Matrix / Core
Mode : 16
Format settings, Endianness : Big
Codec ID : A_DTS
Duration : 1h 48mn
Bit rate mode : Variable / Constant / Constant
Bit rate : 4 892 Kbps / 1 509 Kbps / 1 509 Kbps
Channel(s) : 8 channels / 7 channels / 6 channels
Channel positions : Front: L C R, Side: L R, Back: L R, LFE / Front: L C R, Side: L R, Back: C, LFE / Front: L C R, Side: L R, LFE
Sampling rate : 48.0 KHz
Frame rate : 93.750 fps (512 spf)
Bit depth : 24 bits
Compression mode : Lossless / Lossy / Lossy
Stream size : 3.69 GiB (17%)
Title : ORIGINAL
Language : English
Default : No
Forced : No

Audio #3
ID : 4
Format : AC-3
Format/Info : Audio Coding 3
Mode extension : CM (complete main)
Format settings, Endianness : Big
Codec ID : A_AC3
Duration : 1h 48mn
Bit rate mode : Constant
Bit rate : 224 Kbps
Channel(s) : 2 channels
Channel positions : Front: L R
Sampling rate : 48.0 KHz
Frame rate : 31.250 fps (1536 spf)
Compression mode : Lossy
Stream size : 173 MiB (1%)
Language : English
Default : No
Forced : No

Audio #4
ID : 5
Format : AC-3
Format/Info : Audio Coding 3
Mode extension : CM (complete main)
Format settings, Endianness : Big
Codec ID : A_AC3
Duration : 1h 48mn
Bit rate mode : Constant
Bit rate : 224 Kbps
Channel(s) : 2 channels
Channel positions : Front: L R
Sampling rate : 48.0 KHz
Frame rate : 31.250 fps (1536 spf)
Compression mode : Lossy
Stream size : 173 MiB (1%)
Language : English
Default : No
Forced : No

Text #1
ID : 6
Format : PGS
Muxing mode : zlib
Codec ID : S_HDMV/PGS
Codec ID/Info : Picture based subtitle format used on BDs/HD-DVDs
Duration : 1h 47mn
Bit rate : 10.8 Kbps
Count of elements : 2840
Stream size : 8.27 MiB (0%)
Language : Ukrainian
Default : Yes
Forced : No

Text #2
ID : 7
Format : PGS
Muxing mode : zlib
Codec ID : S_HDMV/PGS
Codec ID/Info : Picture based subtitle format used on BDs/HD-DVDs
Duration : 1h 47mn
Bit rate : 13.9 Kbps
Count of elements : 3704
Stream size : 10.7 MiB (0%)
Language : English
Default : No
Forced : No

Text #3
ID : 8
Format : PGS
Muxing mode : zlib
Codec ID : S_HDMV/PGS
Codec ID/Info : Picture based subtitle format used on BDs/HD-DVDs
Duration : 1h 48mn
Bit rate : 28.3 Kbps
Count of elements : 4842
Stream size : 21.8 MiB (0%)
Language : English
Default : No
Forced : No

Text #4
ID : 9
Format : PGS
Muxing mode : zlib
Codec ID : S_HDMV/PGS
Codec ID/Info : Picture based subtitle format used on BDs/HD-DVDs
Duration : 1h 47mn
Bit rate : 23.6 Kbps
Count of elements : 3988
Stream size : 18.2 MiB (0%)
Language : English
Default : No
Forced : No

Text #5
ID : 10
Format : PGS
Muxing mode : zlib
Codec ID : S_HDMV/PGS
Codec ID/Info : Picture based subtitle format used on BDs/HD-DVDs
Duration : 1s 919ms
Bit rate : 12.0 Kbps
Count of elements : 2
Stream size : 2.81 KiB (0%)
Language : English
Default : No
Forced : No
Скріншоти





Джерело: &
Особиста оцінка: 10 - без зайвих вагань рекомендую всім!


Золотий реліз (завантажене не впливає на рейтинг)
 Трекер:    Зареєстрований   

Завантажити / скачати фільм українською



відео для новачків



 Зареєстрований:   2017-01-02 14:55
 Розмір:   22.3 GB 
 Оцінка фільму:   9.3/10 (Голосів: 38)
   
Інші релізи
   Дедпул / Deadpool (2016) 1080p H.265 Ukr/Eng | Sub Ukr/Eng ukr_anonymous  6 / 0   5.15 GB   2018-08-02 11:09 
   Дедпул / Deadpool (2016) 720p Ukr/Eng | Sub Ukr/Eng leicheman  22 / 0   5.73 GB   2018-04-12 18:32 
   Дедпул / Deadpool (2016) 1080p H.265 Ukr/Eng | Sub Ukr igor302  14 / 1   5.6 GB   2018-03-29 00:56 
   Дедпул / Deadpool (2016) 720p-mini (60 fps) Drool  14 / 1   2.98 GB   2016-05-16 09:48 
   Дедпул / Deadpool (2016) 720p-mini Drool  10 / 0   2.3 GB   2016-05-11 08:43 
   Дедпул / Deadpool (2016) Covenant  33 / 0   1.45 GB   2016-05-10 20:56 
   Дедпул / Deadpool (2016) AVC Ukr/Eng | Sub Ukr/Eng Gelios  21 / 0   1.99 GB   2016-05-08 12:51 
   Дедпул / Deadpool (2016) 1080p Ukr/Eng | Sub Ukr/Eng 11FrYkT  20 / 0   10.13 GB   2016-05-08 12:41 
дяк 
Свій


З нами з: 30.10.10
Востаннє: 17.10.18
Повідомлень: 71

2018-09-12 07:16  
а це режисерська версія?
igor911 
Відео Гуртом
Відео Гуртом


З нами з: 18.01.08
Востаннє: 19.10.18
Повідомлень: 11249

2018-09-12 08:45  
дяк, ні. Її не існує в природі.
Ваш часовий пояс: GMT + 2 Години

Нова тема   Відповісти