Поза часом / The Lovers (2015) 720p Ukr/Eng | Sub Eng

Нові коментарі

Нова тема   Відповісти
Автор Повідомлення
staf777 
Відео Гуртом - підтримка та поширення
Відео Гуртом - підтримка та поширення


З нами з: 16.11.16
Востаннє: 16.08.17
Повідомлень: 522

2016-12-31 19:50  
Поза часом / The Lovers (2015) 720p Ukr/Eng | Sub Eng

Поза часом / The Lovers (2015) 720p Ukr/Eng | Sub Eng


Жанр: мелодрама, пригоди, фантастика, екшн
Країна: Австралія, Бельгія, Індія



Кінокомпанія: Corsan
Режисер: Роланд Жоффе
Актори: Джош Хартнетт, Темсін Егертон, Біпаша Басу, Ом Пурі, Еліс Енглерт, Сімона Кесселл, Теміна Санні, Абхай Деол, Шейн Брайант, Джеймс Маккей

Сюжет:
Це історія про хоробрість і велику силу кохання. Археолог-підводник Джей Фіннел разом з дружиною досліджує затонуле торгове судно XVIII століття. Одного разу, намагаючись врятувати дружину, він отримує небезпечне поранення і впадає в кому. Борючись зі смертю, герой переступає межу реальності і переноситься в Індію 1778 року, де починає жити життям британського офіцера Джеймса Стюарта, який закоханий у правительку Туладже.


Тривалість: 01:49:34
Якість: 720p
Відео:
кодек:
розмір кадру: 1280x534
бітрейт: 5728 кб/с

Аудіо # 1:
мова: українська
переклад: багатоголосий закадровий ААА-sound
кодек: 2.0
бітрейт: 192 кб/с

Аудіо # 2:
мова: англійська
переклад: оригінал
кодек: 5.1
бітрейт: 1509 кб/с

Субтитри(Full, SDH):
мова: англійська
тип: програмні (м'які)
формат: *.srt
Info
General
Unique ID : 183460878047800781323875557968228107173 (0x8A0547A54558288AB0027A3EE5CBC3A5)
Complete name : J:\» HD українською » Фільми в HD\Фантастика\The Lovers (2015) [Ukr,Eng sub.Eng] 720p [Hurtom].
Format :
Format version : Version 4 / Version 2
File size : 5.69 GiB
Duration : 1h 49mn
Overall bit rate : 7 429 Kbps
Movie name : The Lovers (2015) [Ukr,Eng sub.Eng] 720p [Hurtom]
Encoded date : UTC 2017-01-02 06:41:11
Writing application : mkvmerge v9.5.0 ('Quiet Fire') 64bit
Writing library : libebml v1.3.4 + libmatroska v1.4.5
Attachements : poster.jpg

Video
ID : 1
Format : AVC
Format/Info : Advanced Video Codec
Format profile : [email protected]
Format settings, CABAC : Yes
Format settings, ReFrames : 12 frames
Codec ID : V_MPEG4/ISO/AVC
Duration : 1h 49mn
Bit rate : 5 728 Kbps
Width : 1 280 pixels
Height : 534 pixels
Display aspect ratio : 2.40:1
Frame rate mode : Constant
Frame rate : 23.976 (24000/1001) fps
Color space : YUV
Chroma subsampling : 4:2:0
Bit depth : 8 bits
Scan type : Progressive
Bits/(Pixel*Frame) : 0.350
Stream size : 4.38 GiB (77%)
Title : The Lovers (2015) 720p
Writing library : core 142 r2431+42 c69a006 tMod [[email protected] X86_64]
Encoding settings : cabac=1 / ref=12 / deblock=1:-3:-3 / analyse=0x3:0x133 / me=umh / subme=11 / psy=1 / fade_compensate=0.00 / psy_rd=1.05:0.00 / mixed_ref=1 / me_range=32 / chroma_me=1 / trellis=2 / 8x8dct=1 / cqm=0 / deadzone=21,11 / fast_pskip=0 / chroma_qp_offset=-2 / threads=12 / lookahead_threads=3 / sliced_threads=0 / nr=0 / decimate=0 / interlaced=0 / bluray_compat=0 / constrained_intra=0 / fgo=0 / bframes=10 / b_pyramid=2 / b_adapt=2 / b_bias=0 / direct=3 / weightb=1 / open_gop=0 / weightp=2 / keyint=250 / keyint_min=23 / scenecut=40 / intra_refresh=0 / rc_lookahead=60 / rc=crf / mbtree=0 / crf=16.3000 / qcomp=0.65 / qpmin=0:0:0 / qpmax=69:69:69 / qpstep=4 / vbv_maxrate=62500 / vbv_bufsize=78125 / crf_max=0.0 / nal_hrd=none / filler=0 / ip_ratio=1.24 / pb_ratio=1.18 / aq=1:0.75 / aq-sensitivity=10.00 / aq-factor=1.00:1.00:1.00 / aq2=0 / aq3=0 / zones=680,800,crf=15/1500,1650,crf=15/2655,2885,crf=15/9463,9748,crf=15/10575,10669,crf=15/12993,13139,crf=15/15285,15460,crf=15/106130,106280,crf=15/117950,118030,crf=15/122638,122775,crf=15/125581,125700,crf=15/134057,134174,crf=14.5
Language : English
Default : Yes
Forced : No
Color range : Limited
Matrix coefficients : BT.709

Audio #1
ID : 2
Format : AC-3
Format/Info : Audio Coding 3
Mode extension : CM (complete main)
Format settings, Endianness : Big
Codec ID : A_AC3
Duration : 1h 49mn
Bit rate mode : Constant
Bit rate : 192 Kbps
Channel(s) : 2 channels
Channel positions : Front: L R
Sampling rate : 48.0 KHz
Frame rate : 31.250 fps (1536 spf)
Compression mode : Lossy
Stream size : 150 MiB (3%)
Title : | багатоголосий закадровий|
Language : Ukrainian
Default : Yes
Forced : Yes

Audio #2
ID : 3
Format :
Format/Info : Digital Theater Systems
Mode : 16
Format settings, Endianness : Big
Codec ID : A_DTS
Duration : 1h 49mn
Bit rate mode : Constant
Bit rate : 1 509 Kbps
Channel(s) : 6 channels
Channel positions : Front: L C R, Side: L R, LFE
Sampling rate : 48.0 KHz
Frame rate : 93.750 fps (512 spf)
Bit depth : 24 bits
Compression mode : Lossy
Stream size : 1.15 GiB (20%)
Title : Original
Language : English
Default : No
Forced : No

Text #1
ID : 4
Format : UTF-8
Codec ID : S_TEXT/UTF8
Codec ID/Info : UTF-8 Plain Text
Duration : 1h 41mn
Bit rate : 38 bps
Count of elements : 1232
Stream size : 28.6 KiB (0%)
Title : Full
Language : English
Default : No
Forced : No

Text #2
ID : 5
Format : UTF-8
Codec ID : S_TEXT/UTF8
Codec ID/Info : UTF-8 Plain Text
Duration : 1h 41mn
Bit rate : 45 bps
Count of elements : 1511
Stream size : 33.6 KiB (0%)
Title : SDH
Language : English
Default : No
Forced : No
Скріншоти





Джерело: &
Подяка пану Vasua95 за українську доріжку.
Особиста оцінка: 0 - не дивився


 Трекер:    Зареєстрований   

Завантажити / скачати фільм українською



відео для новачків



 Зареєстрований:   2017-01-02 11:03
 Розмір:   5.69 GB 
 Оцінка фільму:   8.3/10 (Голосів: 3)
   
Інші релізи
   Поза часом / Коханці / The Lovers (2015) AVC Gelios  6 / 0   1.45 GB   2015-06-28 20:57 
   Поза часом / The Lovers (2015) AngryBirdsUA  7 / 0   1.45 GB   2015-06-28 17:01 
casper101 
Поважний учасник


З нами з: 03.12.09
Востаннє: 18.08.17
Повідомлень: 207

2017-04-30 18:24  
фільм мав називатися Коханці, а не так.
Ваш часовий пояс: GMT + 2 Години

Нова тема   Відповісти