Чорна меса / Black Mass (2015) Remux 1080p Ukr/Eng | Sub Eng

Нові коментарі

Нова тема   Відповісти
Автор Повідомлення
staf777 
Відео Гуртом - підтримка та поширення
Відео Гуртом - підтримка та поширення


З нами з: 16.11.16
Востаннє: 06.11.17
Повідомлень: 522

2016-12-30 20:03  
Чорна меса / Black Mass (2015) Remux 1080p Ukr/Eng | Sub Eng

Чорна меса / Black Mass (2015) Remux 1080p Ukr/Eng | Sub Eng


Жанр: Драма, кримінал, біографічний
Країна: США



Кінокомпанія: Cross Creek Pictures, Le Grisbi Productions, Infinitum Nihil, Free State Pictures, Head Gear Films, Metrol Technology, RatPac-Dune Entertainment, Ridgerock Entertainment Group, Vendian Entertainment
Режисер: Скотт Купер
Актори: Джонні Депп, Бенедікт Камбербетч, Дакота Джонсон, Джуно Темпл, Кевін Бейкон, Адам Скотт, Джоел Едґертон, Пітер Сарсґаард, Джесс Племонс...

Сюжет:
У 1970-их роках в Південному Бостоні було укладено одне з найбільш дивних і небезпечних співробітництв в історії. Агент ФБР Джон Коннолі переконує ірландського ґанґстера Джеймса "Вайті" Булджера в тому, що їм необхідно об'єднатися проти спільного ворога - італійського кримінального авторитету. Але чи може бути чесним подібний союз? Булджер не звик виконувати чиїсь команди і, звичайно ж, виходить з-під контролю. Але йому вдається уникнути правосуддя і зосередити в руках всю владу. Джеймс "Вайті" Булджер - один із найбезжальніших ґанґстерів в історії Бостона, на чиєму рахунку півтора десятка вбивств, рекет і співпраця із наймогутнішою структурою США.


Тривалість: 02:02:36
Якість: Remux 1080p
Відео:
кодек:
розмір кадру: 1920x1080
бітрейт: 23904 кб/с

Аудіо # 1:
мова: українська
переклад: професійний дубльований
кодек: 2.0
бітрейт: 192 кб/с

Аудіо # 2:
мова: англійська
переклад: оригінал
кодек: -HD MA 5.1
бітрейт: 3443 кб/с

Аудіо # 3:
мова: англійська
переклад: описова
кодек: 5.1
бітрейт: 640 кб/с

Субтитри:
мова: українська (форсовані)
тип: пререндерні
формат: PGS

Субтитри:
мова: англійська
тип: пререндерні
формат: PGS
Info
General
Unique ID : 176902700846123829185043105397401545999 (0x8516388B9BB5B7579A77D1ED5A696D0F)
Complete name : J:\» HD українською » Фільми в HD\Драма\Black Mass (2015)[Ukr,Eng sub.Ukr,Eng]Remux 1080p [Hurtom].
Format :
Format version : Version 4 / Version 2
File size : 24.1 GiB
Duration : 2h 2mn
Overall bit rate mode : Variable
Overall bit rate : 28.2 Mbps
Movie name : Black Mass (2015)[Ukr,Eng sub.Ukr,Eng]Remux 1080p [Hurtom]
Encoded date : UTC 2017-01-02 08:30:26
Writing application : mkvmerge v9.5.0 ('Quiet Fire') 64bit
Writing library : libebml v1.3.4 + libmatroska v1.4.5

Video
ID : 1
Format : AVC
Format/Info : Advanced Video Codec
Format profile : [email protected]
Format settings, CABAC : Yes
Format settings, ReFrames : 2 frames
Format settings, GOP : M=1, N=10
Codec ID : V_MPEG4/ISO/AVC
Duration : 2h 2mn
Bit rate mode : Variable
Bit rate : 23.9 Mbps
Width : 1 920 pixels
Height : 1 080 pixels
Display aspect ratio : 16:9
Frame rate mode : Constant
Frame rate : 23.976 (24000/1001) fps
Color space : YUV
Chroma subsampling : 4:2:0
Bit depth : 8 bits
Scan type : Progressive
Bits/(Pixel*Frame) : 0.481
Stream size : 20.5 GiB (85%)
Title : Black Mass (2015) Remux 1080p
Default : Yes
Forced : No

Audio #1
ID : 2
Format : AC-3
Format/Info : Audio Coding 3
Mode extension : CM (complete main)
Format settings, Endianness : Big
Codec ID : A_AC3
Duration : 2h 2mn
Bit rate mode : Constant
Bit rate : 192 Kbps
Channel(s) : 2 channels
Channel positions : Front: L R
Sampling rate : 48.0 KHz
Frame rate : 31.250 fps (1536 spf)
Compression mode : Lossy
Stream size : 168 MiB (1%)
Title : UA-DUB
Language : Ukrainian
Default : Yes
Forced : Yes

Audio #2
ID : 3
Format :
Format/Info : Digital Theater Systems
Format profile : MA / Core
Mode : 16
Format settings, Endianness : Big
Codec ID : A_DTS
Duration : 2h 2mn
Bit rate mode : Variable / Constant
Bit rate : 3 443 Kbps / 1 509 Kbps
Channel(s) : 6 channels
Channel positions : Front: L C R, Side: L R, LFE
Sampling rate : 48.0 KHz
Frame rate : 93.750 fps (512 spf)
Bit depth : 24 bits
Compression mode : Lossless / Lossy
Stream size : 2.95 GiB (12%)
Title : Original
Language : English
Default : No
Forced : No

Audio #3
ID : 4
Format : AC-3
Format/Info : Audio Coding 3
Mode extension : CM (complete main)
Format settings, Endianness : Big
Codec ID : A_AC3
Duration : 2h 2mn
Bit rate mode : Constant
Bit rate : 640 Kbps
Channel(s) : 6 channels
Channel positions : Front: L C R, Side: L R, LFE
Sampling rate : 48.0 KHz
Frame rate : 31.250 fps (1536 spf)
Compression mode : Lossy
Stream size : 561 MiB (2%)
Title : |Descriptive|
Language : English
Default : No
Forced : No

Text #1
ID : 5
Format : PGS
Muxing mode : zlib
Codec ID : S_HDMV/PGS
Codec ID/Info : Picture based subtitle format used on BDs/HD-DVDs
Duration : 1h 54mn
Bit rate : 949 bps
Count of elements : 102
Stream size : 795 KiB (0%)
Language : Ukrainian
Default : Yes
Forced : No

Text #2
ID : 6
Format : PGS
Muxing mode : zlib
Codec ID : S_HDMV/PGS
Codec ID/Info : Picture based subtitle format used on BDs/HD-DVDs
Duration : 1h 53mn
Bit rate : 16.0 Kbps
Count of elements : 4172
Stream size : 13.0 MiB (0%)
Language : English
Default : No
Forced : No
Скріншоти





Джерело: &
Особиста оцінка: 0 - не дивився


Золотий реліз (завантажене не впливає на рейтинг)
 Трекер:    Зареєстрований   

Завантажити / скачати фільм українською



відео для новачків



 Зареєстрований:   2017-01-02 11:36
 Розмір:   24.15 GB 
 Оцінка фільму:   8.5/10 (Голосів: 4)
   
Інші релізи
   Чорна меса / Black Mass (2015) Covenant  15 / 0   1.45 GB   2016-01-25 13:26 
   Чорна меса / Black Mass (2015) AVC 11FrYkT  8 / 0   2.07 GB   2016-01-22 18:39 
   Чорна меса / Black Mass (2015) 1080p Ukr/Eng | Sub Eng 11FrYkT  1 / 0   12.31 GB   2016-01-22 18:17 
   Чорна меса / Black Mass (2015) 720p Ukr/Eng | Sub Eng 11FrYkT  12 / 0   6.05 GB   2016-01-22 18:10 
   Чорна меса / Black Mass (2015) Ukr/Eng AngryBirdsUA  3 / 0   2.18 GB   2016-01-14 09:06 
Ваш часовий пояс: GMT + 2 Години

Нова тема   Відповісти