Вторгнення / Breaking and Entering (2006) 720p Ukr/Eng | Sub Ukr/Eng

Нові коментарі

Нова тема   Відповісти
Останній раз роздавалося zmiypvv (2017-08-20)
Автор Повідомлення
staf777 
Відео Гуртом - підтримка та поширення
Відео Гуртом - підтримка та поширення


З нами з: 16.11.16
Востаннє: 16.08.17
Повідомлень: 522

2016-12-30 19:46  
Вторгнення / Breaking and Entering (2006) 720p Ukr/Eng | Sub Ukr/Eng

Вторгнення / Breaking and Entering (2006) 720p Ukr/Eng | Sub Ukr/Eng


Жанр: драма, романтичний
Країна: Велика Британія, США



Кінокомпанія: Miramax, Mirage Enterprises
Режисер: Ентоні Мінґелла / Anthony Minghella
Актори: Джуд Лоу / Jude Law, Жюльєт Бінош / Juliette Binoche, Робін Райт / Robin Wright, Рафі Ґаврон / Rafi Gavron, Рей Вінстон / Ray Winstone, Віра Фарміґа / Vera Farmiga, Мартін Фріман / Martin Freeman, Ед Вествік / Ed Westwick, Срджан Сорік / Srdjan Soric, Велібер Топік / Velibor Topic

Сюжет:
Тричі ставши жертвою крадіжки зі взломом і зрозумівши, що на поліцію надії мало, ландшафтний архітектор Вілл Френсіс вирішує особисто вистежити злодія. Він і подумати не міг, що робить крок, який повністю змінить його життя. Адже злодієм виявляється син красуні вдови Аміри, боснійської біженки, яка зачіпає в душі нудного лондонця такі струни, про наявність яких той навіть не підозрював. Приховавши від неї факт кримінальної поведінки улюбленого сина, Вілл заводить знайомство з предметом свого раптового захоплення, передчуваючи, що їх дивні стосунки скоро дивним чином змінять його життя. Ось тільки є одна проблема: у Вілла є дружина і донька, яких він любить і зовсім не хоче робити їм боляче. Що ж, любов не злочин — але деколи вона так схожа на кару…


Тривалість: 01:55:41
Якість: 720p
Відео:
кодек:
розмір кадру: 1280x544
бітрейт: 4 854 кб/с

Аудіо # 1:
мова: українська
переклад: багатоголосий закадровий
кодек: 2.0
бітрейт: 192 кб/с

Аудіо # 2:
мова: англійська
переклад: оригінал
кодек: 5.1
бітрейт: 1509 кб/с

Субтитри # 1:
мова: українська
тип: програмні (м'які)
формат: *.srt

Субтитри # 2-3:
мова: англійська (повні, SDH)
тип: програмні (м'які)
формат: *.srt
Info
General
Unique ID : 191342868380867746665816325017251103663 (0x8FF34BC5BC7B888BB8D3844D668843AF)
Complete name : E:\HDCLUB\Breaking and Entering (2006) [Ukr,Eng sub.Ukr,Eng] 720p [Hurtom].
Format :
Format version : Version 4 / Version 2
File size : 5.44 GiB
Duration : 1h 58mn
Overall bit rate : 6 553 Kbps
Movie name : Breaking and Entering (2006) [Ukr,Eng sub.Ukr,Eng] 720p [Hurtom]
Encoded date : UTC 2016-12-31 11:43:26
Writing application : mkvmerge v9.5.0 ('Quiet Fire') 64bit
Writing library : libebml v1.3.4 + libmatroska v1.4.5
Attachements : cover.jpg..jpg

Video
ID : 1
Format : AVC
Format/Info : Advanced Video Codec
Format profile : High@L4.1
Format settings, CABAC : Yes
Format settings, ReFrames : 12 frames
Codec ID : V_MPEG4/ISO/AVC
Duration : 1h 58mn
Bit rate : 4 854 Kbps
Width : 1 280 pixels
Height : 544 pixels
Display aspect ratio : 2.35:1
Frame rate mode : Constant
Frame rate : 23.976 (24000/1001) fps
Color space : YUV
Chroma subsampling : 4:2:0
Bit depth : 8 bits
Scan type : Progressive
Bits/(Pixel*Frame) : 0.291
Stream size : 4.03 GiB (74%)
Title : Breaking and Entering (2006) 720p
Writing library : core 148 r2665kMod a01e339
Encoding settings : cabac=1 / ref=12 / deblock=1:-3:-3 / analyse=0x3:0x133 / me=umh / subme=10 / psy=1 / fade_compensate=0.00 / psy_rd=1.05:0.00 / mixed_ref=1 / me_range=24 / chroma_me=1 / trellis=2 / 8x8dct=1 / cqm=0 / deadzone=21,11 / fast_pskip=0 / chroma_qp_offset=-2 / threads=12 / lookahead_threads=3 / sliced_threads=0 / nr=0 / decimate=0 / interlaced=0 / bluray_compat=0 / constrained_intra=0 / fgo=0 / bframes=11 / b_pyramid=2 / b_adapt=2 / b_bias=0 / direct=3 / weightb=1 / open_gop=0 / weightp=2 / keyint=250 / keyint_min=23 / scenecut=40 / intra_refresh=0 / rc_lookahead=60 / rc=crf / mbtree=0 / crf=16.5000 / qcomp=0.65 / qpmin=0 / qpmax=69 / qpstep=4 / vbv_maxrate=62500 / vbv_bufsize=78125 / crf_max=0.0 / nal_hrd=none / filler=0 / ip_ratio=1.30 / pb_ratio=1.20 / aq=3:0.75
Language : English
Default : Yes
Forced : No
Color range : Limited
Matrix coefficients : BT.709

Audio #1
ID : 2
Format : AC-3
Format/Info : Audio Coding 3
Mode extension : CM (complete main)
Format settings, Endianness : Big
Codec ID : A_AC3
Duration : 1h 55mn
Bit rate mode : Constant
Bit rate : 192 Kbps
Channel(s) : 2 channels
Channel positions : Front: L R
Sampling rate : 48.0 KHz
Frame rate : 31.250 fps (1536 spf)
Compression mode : Lossy
Stream size : 159 MiB (3%)
Title : UA-1+1|
Language : Ukrainian
Default : Yes
Forced : Yes

Audio #2
ID : 3
Format :
Format/Info : Digital Theater Systems
Mode : 16
Format settings, Endianness : Big
Codec ID : A_DTS
Duration : 1h 58mn
Bit rate mode : Constant
Bit rate : 1 509 Kbps
Channel(s) : 6 channels
Channel positions : Front: L C R, Side: L R, LFE
Sampling rate : 48.0 KHz
Frame rate : 93.750 fps (512 spf)
Bit depth : 24 bits
Compression mode : Lossy
Stream size : 1.25 GiB (23%)
Title : Original
Language : English
Default : No
Forced : No

Text #1
ID : 4
Format : UTF-8
Codec ID : S_TEXT/UTF8
Codec ID/Info : UTF-8 Plain Text
Duration : 1h 52mn
Bit rate : 96 bps
Count of elements : 1422
Stream size : 80.1 KiB (0%)
Language : Ukrainian
Default : No
Forced : No

Text #2
ID : 5
Format : UTF-8
Codec ID : S_TEXT/UTF8
Codec ID/Info : UTF-8 Plain Text
Duration : 1h 52mn
Bit rate : 63 bps
Count of elements : 1391
Stream size : 52.2 KiB (0%)
Language : English
Default : No
Forced : No

Text #3
ID : 6
Format : UTF-8
Codec ID : S_TEXT/UTF8
Codec ID/Info : UTF-8 Plain Text
Duration : 1h 52mn
Bit rate : 63 bps
Count of elements : 1394
Stream size : 52.2 KiB (0%)
Title : SDH
Language : English
Default : No
Forced : No
Скріншоти




Джерело: &
подяка п. OlegCena, xslim та karvai0 за українську дорiжку


 Трекер:    Зареєстрований   

Завантажити / скачати фільм українською



відео для новачків



 Зареєстрований:   2016-12-31 16:14
 Розмір:   5.44 GB 
 Оцінка фільму:   6/10 (Голосів: 2)
   
Інші релізи
Ваш часовий пояс: GMT + 2 Години

Нова тема   Відповісти