Стан несамовитості / State of grace (1990) 720p Ukr/Eng | Sub Eng

Нові коментарі

Нова тема   Відповісти
Автор Повідомлення
staf777 
Відео Гуртом - підтримка та поширення
Відео Гуртом - підтримка та поширення


З нами з: 16.11.16
Востаннє: 20.10.17
Повідомлень: 522

2016-12-30 18:50  
Стан несамовитості / State of grace (1990) 720p Ukr/Eng | Sub Eng

Стан несамовитості / State of grace (1990) 720p Ukr/Eng | Sub Eng

оригінальний постер

Стан несамовитості / State of grace (1990) 720p Ukr/Eng | Sub Eng


Жанр: трилер
Країна: США



Кінокомпанія: Orion Pictures
Режисер: Філ Джоану / Phil Joanou
Актори: Шон Пенн / Sean Penn, Гарі Олдман / Gary Oldman, Ед Харріс / Ed Harris, Робін Райт / Robin WrighПенн, Джон Туртурро / John Turturro, Джон С. Райллі / John C. Reilly, Берджесс Мередіт / Burgess Meredith та інші.

Сюжет:
Тері виріс у Пекельній кухні, невеликому ірландському кварталі в західній частині Манхеттена. Повернувшись до Нью-Йорка після десятирічної відсутності, він зустрічає свого найкращого друга дитинства Джекі, чий брат Френкі став босом ірландської мафії, а сестра Кетлін, перше кохання Тері, перетворилася на чарівну жінку. Не цілком довіряючи Тері, Френкі все-таки доручає йому разом з Джекі вибивати дань із місцевих торговців. Ніхто ще не знає, що Тері - поліцейський, що працює під прикриттям. І Тері болісно розривається між дружбою з Джекі, коханням до Кетлін і необхідністю виконати свій обов'язок, посадити Френкі за грати.


Тривалість: 02:14:07
Якість: 720p
Відео:
кодек:
розмір кадру: 1280x690
бітрейт: 12000 кб/с

Аудіо # 1:
мова: українська
переклад: багатоголосий закадровий
кодек: 2.0
бітрейт: 192 кб/с

Аудіо # 2:
мова: англійська
переклад: оригінал
кодек: 5.1
бітрейт: 1509 кб/с

Субтитри #1-2:
мова: англійська[SDH]
тип: програмні (м'які)
формат: *.srt
Info
General
Unique ID : 233473997172186641642585765263217012230 (0xAFA574CC13BD32898A75F34B95382E06)
Complete name : J:\» HD українською » Фільми в HD\Трилер\State of grace (1990)[Ukr,Eng sub.Eng] 720p [Hurtom].
Format :
Format version : Version 4 / Version 2
File size : 12.8 GiB
Duration : 2h 14mn
Overall bit rate : 13.7 Mbps
Movie name : State of grace (1990)[Ukr,Eng sub.Eng] 720p [Hurtom]
Encoded date : UTC 2016-12-30 15:49:36
Writing application : mkvmerge v9.5.0 ('Quiet Fire') 64bit
Writing library : libebml v1.3.4 + libmatroska v1.4.5
Attachements : cover.jpg

Video
ID : 1
Format : AVC
Format/Info : Advanced Video Codec
Format profile : High@L4.1
Format settings, CABAC : Yes
Format settings, ReFrames : 9 frames
Codec ID : V_MPEG4/ISO/AVC
Duration : 2h 14mn
Bit rate : 12.0 Mbps
Width : 1 280 pixels
Height : 690 pixels
Display aspect ratio : 1.85:1
Frame rate mode : Constant
Frame rate : 23.976 (23976/1000) fps
Color space : YUV
Chroma subsampling : 4:2:0
Bit depth : 8 bits
Scan type : Progressive
Bits/(Pixel*Frame) : 0.567
Stream size : 11.2 GiB (88%)
Title : State of Grace (1990) 720p
Writing library : core 148 r2705+54 9f484c1 t_mod_Custom [8-bit@all X86_64]
Encoding settings : cabac=1 / ref=9 / deblock=1:-3:-3 / analyse=0x3:0x133 / me=umh / subme=10 / psy=1 / fade_compensate=0.00 / psy_rd=1.00:0.00 / mixed_ref=1 / me_range=24 / chroma_me=1 / trellis=2 / 8x8dct=1 / cqm=0 / deadzone=21,11 / fast_pskip=0 / chroma_qp_offset=-2 / threads=6 / lookahead_threads=1 / sliced_threads=0 / nr=0 / decimate=1 / interlaced=0 / bluray_compat=0 / constrained_intra=0 / fgo=0 / bframes=8 / b_pyramid=2 / b_adapt=2 / b_bias=0 / direct=3 / weightb=1 / open_gop=0 / weightp=2 / keyint=250 / keyint_min=23 / scenecut=40 / intra_refresh=0 / rc=2pass / mbtree=0 / bitrate=12000 / ratetol=1.0 / qcomp=0.70 / qpmin=0:0:0 / qpmax=69:69:69 / qpstep=4 / cplxblur=20.0 / qblur=0.5 / ip_ratio=1.40 / pb_ratio=1.30 / aq=1:0.70 / aq-sensitivity=10.00 / aq-factor=1.00:1.00:1.00 / aq2=1:0.60 / aq2-sensitivity=15.00 / aq2-factor=1.00:1.00:1.00 / aq3=1:[0.50:0.50]:[0.50:0.50]:[0.50:0.50]:[0.50:0.50] / aq3-sensitivity=10.00 / aq3-factor=[1.00:1.00]:[1.00:1.00]:[1.00:1.00] / aq3-boundary=192:64:24
Language : English
Default : Yes
Forced : No
Color range : Limited
Matrix coefficients : BT.709

Audio #1
ID : 2
Format : AC-3
Format/Info : Audio Coding 3
Mode extension : CM (complete main)
Format settings, Endianness : Big
Codec ID : A_AC3
Duration : 2h 14mn
Bit rate mode : Constant
Bit rate : 192 Kbps
Channel(s) : 2 channels
Channel positions : Front: L R
Sampling rate : 48.0 KHz
Frame rate : 31.250 fps (1536 spf)
Compression mode : Lossy
Stream size : 184 MiB (1%)
Title : UA-MVO-ТК "Інтер"
Language : Ukrainian
Default : Yes
Forced : Yes

Audio #2
ID : 3
Format :
Format/Info : Digital Theater Systems
Mode : 16
Format settings, Endianness : Big
Codec ID : A_DTS
Duration : 2h 14mn
Bit rate mode : Constant
Bit rate : 1 509 Kbps
Channel(s) : 6 channels
Channel positions : Front: L C R, Side: L R, LFE
Sampling rate : 48.0 KHz
Frame rate : 93.750 fps (512 spf)
Bit depth : 24 bits
Compression mode : Lossy
Stream size : 1.41 GiB (11%)
Title : Original
Language : English
Default : No
Forced : No

Text #1
ID : 4
Format : UTF-8
Codec ID : S_TEXT/UTF8
Codec ID/Info : UTF-8 Plain Text
Duration : 1h 58mn
Bit rate : 62 bps
Count of elements : 1700
Stream size : 54.0 KiB (0%)
Language : English
Default : No
Forced : No

Text #2
ID : 5
Format : UTF-8
Codec ID : S_TEXT/UTF8
Codec ID/Info : UTF-8 Plain Text
Duration : 2h 0mn
Bit rate : 64 bps
Count of elements : 1843
Stream size : 56.7 KiB (0%)
Title : SDH
Language : English
Default : No
Forced : No
Скріншоти




Подяка пану Lan за доріжку та пану hellforces за постер.

Джерело: &


Срібний реліз (на рейтинг впливає 50% завантаженого)
 Трекер:    Зареєстрований   

Завантажити / скачати фільм українською



відео для новачків



 Зареєстрований:   2016-12-31 14:03
 Розмір:   12.84 GB 
 Оцінка фільму:   5.8/10 (Голосів: 4)
   
Інші релізи
   Стан несамовитості / State of grace (1990) Ukr/Eng Neo777  1 / 0   2.28 GB   2011-08-04 11:03 
Ваш часовий пояс: GMT + 2 Години

Нова тема   Відповісти