Жорстокі ігри / Cruel Intentions (1999) Remux 1080p Ukr/Eng | Sub Eng

Нові коментарі

Нова тема   Відповісти
Автор Повідомлення
staf777 
Відео Гуртом - підтримка та поширення
Відео Гуртом - підтримка та поширення


З нами з: 16.11.16
Востаннє: 16.08.17
Повідомлень: 522

2016-12-30 13:47  
Жорстокі ігри / Cruel Intentions (1999) Remux 1080p Ukr/Eng | Sub Eng

Жорстокі ігри / Cruel Intentions (1999) Remux 1080p Ukr/Eng | Sub Eng


Жанр: трилер, драма, мелодрама
Країна: США



Кінокомпанія: Columbia Pictures Corporation, Cruel Productions LLC, Newmarket Capital Group
Режисер: Роджер Камбл
Актори: Сара Мішель Ґеллар / Sarah Michelle Gellar (Kathryn Merteuil), Райан Філліп / Ryan Phillippe (Sebastian Valmont), Різ Візерспун / Reese Witherspoon (Annette Hargrove), Сельма Блер / Selma Blair (Cecile Caldwell), Шон Патрік Томас / Sean Patrick Thomas (Ronald Clifford), Ерік Мебіас / Eric Mabius (Greg McConnell), Луіза Флетчер / Louise Fletcher (Helen Rosemond), Джошуа Джексон / Joshua Jackson (Blaine Tuttle)

Сюжет:
Себастьян знає солодкий присмак легких перемог. У його руках - чужі таємниці і ключі від неприступних спалень. Катрін втомилася від простих інтриг і банальних визнань. Тоді сучасний Казанова і нудьгуюча красуня придумують собі нову розвагу. У їх жорстокій грі не вистачає тільки жертви...

рейтинг MPAA: R - особам до 17 років обов'язкова присутність батьків або дорослого опікуна
Вікова категорія: 16+


Тривалість: 01:37:28
Якість: Remux 1080p
Відео:
кодек:
розмір кадру: 1920x1080
бітрейт: 22.0 Mб/с

Аудіо # 1:
мова: українська
переклад: багатоголосий закадровий
кодек: 5.1
бітрейт: 384 кб/с
Інформація про озвучення

Переклад виконано і озвучено на студії "ТакТреба Продакшн"
Аудіо # 2:
мова: англійська
переклад: оригінал
кодек: -HD MA 5.1
бітрейт: 2346 кб/с

Аудіо # 3:
мова: англійська
переклад: коментарі
кодек: 2.0
бітрейт: 192 кб/с

Субтитри # 1-3:
мова: англійська
тип: пререндерні
формат: PGS
Info
General
Unique ID : 233828822487763528918485381813707648256 (0xAFE9CB0930FD688B9E2CE0B33812AD00)
Complete name : E:\HDCLUB\Cruel.Intentions.1999.Remux.HDCLUB\BDMV\STREAM\ Cruel Intentions (1999) [Ukr,Eng sub.Eng] Remux 1080p [Hurtom].
Format :
Format version : Version 4 / Version 2
File size : 17.0 GiB
Duration : 1h 37mn
Overall bit rate mode : Variable
Overall bit rate : 24.9 Mbps
Movie name : Cruel Intentions (1999) [Ukr,Eng sub.Eng] Remux 1080p [Hurtom]
Encoded date : UTC 2016-12-30 12:11:52
Writing application : mkvmerge v9.5.0 ('Quiet Fire') 64bit
Writing library : libebml v1.3.4 + libmatroska v1.4.5
Attachements : cover.jpg..jpg

Video
ID : 1
Format : AVC
Format/Info : Advanced Video Codec
Format profile : [email protected]
Format settings, CABAC : Yes
Format settings, ReFrames : 2 frames
Codec ID : V_MPEG4/ISO/AVC
Duration : 1h 37mn
Bit rate mode : Variable
Bit rate : 22.0 Mbps
Width : 1 920 pixels
Height : 1 080 pixels
Display aspect ratio : 16:9
Frame rate mode : Constant
Frame rate : 23.976 (24000/1001) fps
Color space : YUV
Chroma subsampling : 4:2:0
Bit depth : 8 bits
Scan type : Progressive
Bits/(Pixel*Frame) : 0.442
Stream size : 15.0 GiB (88%)
Title : Cruel Intentions (1999) Remux 1080p
Default : Yes
Forced : No

Audio #1
ID : 2
Format : AC-3
Format/Info : Audio Coding 3
Mode extension : CM (complete main)
Format settings, Endianness : Big
Codec ID : A_AC3
Duration : 1h 37mn
Bit rate mode : Constant
Bit rate : 384 Kbps
Channel(s) : 6 channels
Channel positions : Front: L C R, Side: L R, LFE
Sampling rate : 48.0 KHz
Frame rate : 31.250 fps (1536 spf)
Compression mode : Lossy
Stream size : 268 MiB (2%)
Title : UA-MVO
Language : Ukrainian
Default : Yes
Forced : Yes

Audio #2
ID : 3
Format :
Format/Info : Digital Theater Systems
Format profile : MA / Core
Mode : 16
Format settings, Endianness : Big
Codec ID : A_DTS
Duration : 1h 37mn
Bit rate mode : Variable / Constant
Bit rate : 2 346 Kbps / 1 509 Kbps
Channel(s) : 6 channels
Channel positions : Front: L C R, Side: L R, LFE
Sampling rate : 48.0 KHz
Frame rate : 93.750 fps (512 spf)
Bit depth : 16 bits
Compression mode : Lossless / Lossy
Stream size : 1.60 GiB (9%)
Language : English
Default : No
Forced : No

Audio #3
ID : 4
Format : AC-3
Format/Info : Audio Coding 3
Format profile : Dolby Digital
Mode extension : CM (complete main)
Format settings, Endianness : Big
Codec ID : A_AC3
Duration : 1h 37mn
Bit rate mode : Constant
Bit rate : 192 Kbps
Channel(s) : 2 channels
Channel positions : Front: L R
Sampling rate : 48.0 KHz
Frame rate : 31.250 fps (1536 spf)
Compression mode : Lossy
Stream size : 134 MiB (1%)
Language : English
Default : No
Forced : No

Text #1
ID : 5
Format : PGS
Muxing mode : zlib
Codec ID : S_HDMV/PGS
Codec ID/Info : Picture based subtitle format used on BDs/HD-DVDs
Duration : 1h 28mn
Bit rate : 17.9 Kbps
Count of elements : 2408
Stream size : 11.4 MiB (0%)
Language : English
Default : Yes
Forced : No

Text #2
ID : 6
Format : PGS
Muxing mode : zlib
Codec ID : S_HDMV/PGS
Codec ID/Info : Picture based subtitle format used on BDs/HD-DVDs
Duration : 1h 34mn
Bit rate : 14.2 Kbps
Count of elements : 2649
Stream size : 9.59 MiB (0%)
Language : English
Default : No
Forced : No

Text #3
ID : 7
Format : PGS
Muxing mode : zlib
Codec ID : S_HDMV/PGS
Codec ID/Info : Picture based subtitle format used on BDs/HD-DVDs
Duration : 1h 37mn
Bit rate : 20.3 Kbps
Count of elements : 2154
Stream size : 14.1 MiB (0%)
Language : English
Default : No
Forced : No
Скріншоти




Джерело: &
Особиста оцінка: 0 - не дивився


Золотий реліз (завантажене не впливає на рейтинг)
 Трекер:    Зареєстрований   

Завантажити / скачати фільм українською



відео для новачків



 Зареєстрований:   2016-12-30 18:55
 Розмір:   16.98 GB 
 Оцінка фільму:   8.3/10 (Голосів: 6)
   
Інші релізи
   Жорстокі ігри / Cruel Intentions (1999) AVC Ukr/Eng | Sub Eng Загора  4 / 0   2.06 GB   2016-07-10 14:00 
   Жорстокі ігри / Cruel Intentions (1999) 1080p Ukr/Eng | Sub Eng igor911  6 / 0   7.51 GB   2013-05-06 16:09 
   Жорстокі ігри / Cruel Intentions (1999) 720p Ukr/Eng MasterYura  1 / 0   4 GB   2011-05-15 12:41 
   Жорстокі ігри / Cruel Intentions (1999) Snooppy  9 / 0   1.46 GB   2009-12-08 15:42 
Bod_zik99 
VIP


З нами з: 28.12.13
Востаннє: 19.08.17
Повідомлень: 1176

2016-12-30 19:07  
Один з найкращих та один з найбільш недооцінених для мене фільмів.
Gvyntyk 
Свій


З нами з: 15.02.09
Востаннє: 17.08.17
Повідомлень: 111

2016-12-31 05:15  
Один з найулюбленіших фільмів.
AI_Avenger 
Новенький


З нами з: 31.07.13
Востаннє: 16.08.17
Повідомлень: 9

2016-12-31 10:40  
IMHO найкраща з серії "Жорстокі ігри"
sDob 
Новенький


З нами з: 19.01.16
Востаннє: 19.08.17
Повідомлень: 11

2017-01-02 12:08  
а чому менi здавалось, що Intention - намiри, а не iгри.
якщо по фiльму, то так - ще та цукерка)

Ваш часовий пояс: GMT + 2 Години

Нова тема   Відповісти