Операція Валькірія / Valkyrie (2008) Remux 1080p Ukr/Eng | Sub Ukr/Eng

Нові коментарі

Нова тема   Відповісти
Автор Повідомлення
staf777 
Відео Гуртом - підтримка та поширення
Відео Гуртом - підтримка та поширення


З нами з: 16.11.16
Востаннє: 16.08.17
Повідомлень: 522

2016-12-29 15:58  
Операція Валькірія / Valkyrie (2008) Remux 1080p Ukr/Eng | Sub Ukr/Eng

Жанр: драма, історичний, трилер
Країна: США, Німеччина



Кінокомпанія: United Artists
Режисер: Браян Сінґер
Актори: Том Круз, Кеннет Брана, Білл Наї, Том Вілкінсон, Керіс ван Хоутен

Сюжет:
Історія героя опору полковника Клауса фон Штауффенберга, що очолив змову проти Гітлера. У 1944 році він спробував підірвати диктатора.Він приніс в портфелі бомбу, але все, що йому удалося — лише поранити Гітлера.


Тривалість: 02:00:20
Якість: Remux 1080p
Відео:
кодек:
розмір кадру: 1920x1080
бітрейт: 22963 кб/с

Аудіо # 1:
мова: українська
переклад: професійний дубльований
кодек: 5.1
бітрейт: 448 кб/с

Аудіо # 2:
мова: англійська
переклад: оригінал
кодек: -HD MA 5.1
бітрейт: 3685 кб/с

Аудіо # 3:
мова: англійська
переклад: коментарі
кодек: 2.0
бітрейт: 224 кб/с

Аудіо # 4:
мова: англійська
переклад: коментарі
кодек: 2.0
бітрейт: 224 кб/с

Субтитри # 1:
мова: українська
тип: пререндерні
формат: PGS

Субтитри # 2-4:
мова: англійська
тип: пререндерні
формат: PGS
Info
General
Unique ID : 203168135149765268508345326209735166281 (0x98D8C27019D725D98EB0AC55CDD58949)
Complete name : E:\HDCLUB\VALKYRIE_2008_BDREMUX\BDMV\STREAM\Valkyrie (2008)[Ukr,Eng sub.Ukr,Eng]Remux 1080p [Hurtom].
Format :
Format version : Version 4 / Version 2
File size : 23.2 GiB
Duration : 2h 0mn
Overall bit rate mode : Variable
Overall bit rate : 27.6 Mbps
Movie name : Valkyrie (2008)[Ukr,Eng sub.Ukr,Eng]Remux 1080p [Hurtom]
Encoded date : UTC 2016-12-29 17:04:55
Writing application : mkvmerge v9.5.0 ('Quiet Fire') 64bit
Writing library : libebml v1.3.4 + libmatroska v1.4.5
Attachements : cover.jpg..jpg

Video
ID : 1
Format : AVC
Format/Info : Advanced Video Codec
Format profile : [email protected]
Format settings, CABAC : Yes
Format settings, ReFrames : 4 frames
Codec ID : V_MPEG4/ISO/AVC
Duration : 2h 0mn
Bit rate mode : Variable
Bit rate : 22.9 Mbps
Maximum bit rate : 37.0 Mbps
Width : 1 920 pixels
Height : 1 080 pixels
Display aspect ratio : 16:9
Frame rate mode : Constant
Frame rate : 23.976 (24000/1001) fps
Color space : YUV
Chroma subsampling : 4:2:0
Bit depth : 8 bits
Scan type : Progressive
Bits/(Pixel*Frame) : 0.461
Stream size : 19.3 GiB (83%)
Title : Valkyrie (2008) Remux 1080p
Default : Yes
Forced : No
Color range : Limited
Color primaries : BT.709
Transfer characteristics : BT.709
Matrix coefficients : BT.709

Audio #1
ID : 2
Format : AC-3
Format/Info : Audio Coding 3
Mode extension : CM (complete main)
Format settings, Endianness : Big
Codec ID : A_AC3
Duration : 2h 0mn
Bit rate mode : Constant
Bit rate : 448 Kbps
Channel(s) : 6 channels
Channel positions : Front: L C R, Side: L R, LFE
Sampling rate : 48.0 KHz
Frame rate : 31.250 fps (1536 spf)
Compression mode : Lossy
Stream size : 386 MiB (2%)
Title : UA-DUB- Blu-Ray CEE|
Language : Ukrainian
Default : Yes
Forced : Yes

Audio #2
ID : 3
Format :
Format/Info : Digital Theater Systems
Format profile : MA / Core
Mode : 16
Format settings, Endianness : Big
Codec ID : A_DTS
Duration : 2h 0mn
Bit rate mode : Variable / Constant
Bit rate : 3 685 Kbps / 1 509 Kbps
Channel(s) : 6 channels
Channel positions : Front: L C R, Side: L R, LFE
Sampling rate : 48.0 KHz
Frame rate : 93.750 fps (512 spf)
Bit depth : 24 bits
Compression mode : Lossless / Lossy
Stream size : 3.10 GiB (13%)
Title : ORIGINAL
Language : English
Default : No
Forced : No

Audio #3
ID : 4
Format : AC-3
Format/Info : Audio Coding 3
Mode extension : CM (complete main)
Format settings, Endianness : Big
Codec ID : A_AC3
Duration : 2h 0mn
Bit rate mode : Constant
Bit rate : 224 Kbps
Channel(s) : 2 channels
Channel positions : Front: L R
Sampling rate : 48.0 KHz
Frame rate : 31.250 fps (1536 spf)
Compression mode : Lossy
Stream size : 193 MiB (1%)
Title : |Commentary, Tom Cruise, Bryan Singer and Christopher McQuarrie|
Language : English
Default : No
Forced : No

Audio #4
ID : 5
Format : AC-3
Format/Info : Audio Coding 3
Mode extension : CM (complete main)
Format settings, Endianness : Big
Codec ID : A_AC3
Duration : 2h 0mn
Bit rate mode : Constant
Bit rate : 224 Kbps
Channel(s) : 2 channels
Channel positions : Front: L R
Sampling rate : 48.0 KHz
Frame rate : 31.250 fps (1536 spf)
Compression mode : Lossy
Stream size : 193 MiB (1%)
Title : |Commentary, Christopher McQuarrie and Nathan Alexander|
Language : English
Default : No
Forced : No

Text #1
ID : 6
Format : PGS
Muxing mode : zlib
Codec ID : S_HDMV/PGS
Codec ID/Info : Picture based subtitle format used on BDs/HD-DVDs
Duration : 1h 50mn
Bit rate : 9 537 bps
Count of elements : 2074
Stream size : 7.52 MiB (0%)
Language : Ukrainian
Default : Yes
Forced : No

Text #2
ID : 7
Format : PGS
Muxing mode : zlib
Codec ID : S_HDMV/PGS
Codec ID/Info : Picture based subtitle format used on BDs/HD-DVDs
Duration : 1h 48mn
Bit rate : 9 920 bps
Count of elements : 2128
Stream size : 7.69 MiB (0%)
Language : English
Default : No
Forced : No

Text #3
ID : 8
Format : PGS
Muxing mode : zlib
Codec ID : S_HDMV/PGS
Codec ID/Info : Picture based subtitle format used on BDs/HD-DVDs
Duration : 1h 59mn
Bit rate : 29.9 Kbps
Count of elements : 5149
Stream size : 25.7 MiB (0%)
Language : English
Default : No
Forced : No

Text #4
ID : 9
Format : PGS
Muxing mode : zlib
Codec ID : S_HDMV/PGS
Codec ID/Info : Picture based subtitle format used on BDs/HD-DVDs
Duration : 1h 58mn
Bit rate : 25.2 Kbps
Count of elements : 4169
Stream size : 21.4 MiB (0%)
Language : English
Default : No
Forced : No
Скріншоти



Джерело: &
Особиста оцінка: 0 - не дивився


Золотий реліз (завантажене не впливає на рейтинг)
 Трекер:    Зареєстрований   

Завантажити / скачати фільм українською



відео для новачків



 Зареєстрований:   2016-12-30 12:38
 Розмір:   23.19 GB 
 Оцінка фільму:   8.8/10 (Голосів: 8)
   
Інші релізи
   Операція Валькірія / Valkyrie (2008) AVC Ukr/Eng Yarik M  0 / 0   3.05 GB   2014-06-03 11:32 
   Операція Валькірія / Valkyrie (2008) 720p-mini Drool  5 / 0   2.73 GB   2013-12-26 15:38 
   Операція Валькірія / Valkyrie (2008) Ukr/Eng | Sub 2xUkr/Eng Xshot  6 / 0   2.18 GB   2013-07-13 19:21 
   Операція Валькірія / Valkyrie (2008) 1080p Arsenfpu  5 / 0   10.41 GB   2011-07-15 20:45 
nickosat 
Новенький


З нами з: 23.11.14
Востаннє: 21.08.17
Повідомлень: 5

2017-01-06 23:26  
Гарний фільм, рекомендую!!!
Ваш часовий пояс: GMT + 2 Години

Нова тема   Відповісти