Криворівня душі (2006) DVD5

Нові коментарі

Нова тема   Відповісти
Автор Повідомлення
StefFanKo 
Новенький


З нами з: 17.09.13
Востаннє: 14.08.17
Повідомлень: 23

2016-12-29 15:18  
Криворівня душі (2006) DVD5

Криворівня душі (2006) DVD5


1. Світ Параски Горицвіт (1992) DVD5
Жанр: біографічний, документальний
Країна: Україна
Кіностудія: Українська студія хроніко-документальних фільмів, об'єднання "Дзвін"
Режисер: Павло Фаренюк
Оператор: Олександр Коваль
Сценарій: Павло Фаренюк
Звукооператор: Леонід Мороз, Леонід Колоско
Композитор: Кирило Стеценко

Сюжет:
Авторам вдалося побачити і розкрити духовну велич та цінність української жінки-дисидента.
Тривалість: 00:57:38
Якість: DVD5
Відео:
кодек: MPEG Video
розмір кадру: 768x576
бітрейт: 2769 кб/с
Аудіо:
мова: українська
переклад: оригінал
кодек: MP2
бітрейт: 384 кб/с
Скріншоти:
2. Коляда для Параски (2005) DVD5
Жанр: біографічний, документальний
Країна: Україна
Кіностудія: Державний центр театрального мистецтва ім. Леся Курбаса
Режисер: Олег Драч
Оператор: Вадим Ільков
Композитор: Мирон Блошищак
Директор: Олександр Чайка
Сюжет:
Спогади близьких людей про нелегке та неординарне життя "гуцульського Сковороди", художника, письменниці - Параски.
Тривалість: 00:50:18
Якість: DVD5
Відео:
кодек:MPEG Video
розмір кадру: 768x576
бітрейт: 5710 кб/с
Аудіо:
мова:українська
переклад: оригінал
кодек: PCM
бітрейт: 1536 кб/с
Скріншоти:
3. Казки-сміхівниці, медоточиці, дітолюбиці, колисниці. Дітонькам-квітонькам:"веселкові барви" (199?) FLAC
Країна, місто: Україна, Криворівня
Виконавці:
Читає автор - Параска Плитка-Горицвіт
Казки:

КАЗКИ СМІХІВНИЦІ, МЕДОТОЧИЦІ, ДІТОЛЮБИЦІ, КОЛИСНИЦІ.
1. Вступ
2. Качечка-прачечка
3. Хмаринка і Сніжок
4. Постолець-ковзанець
5. Ворона-каркачка
6. Ніченька-казківниця
7. Жонвиця-лікариця
8. Білонька-трясихвіст
9. Морквиця-хихлатиця
10. Дуб-вирви-чуб
11. Горобчик-хлопчик
12. Коровка Бу-бу
13. Котик Мури-мур
14. Черешенька і Сойка
15. Вишенька-кваснуся
16. Гонорначі
17. Баранчик-біланчик
18. Котеня-череванчик
19. Котик-пуховик
20. Пташка-метихвіст
21. Наймит
22. Морозець-склодув
23. Вітер-повістун
24. Веснонька-засівниця
25. Їжачки-несуни
26. Яблучко-довгохвіст
27. Цибулька-товстуся
28. Золотий перстенець

ДІТОНЬКАМ-КВІТОНЬКАМ:"ВЕСЕЛКОВІ БАРВИ"
29. Вступ
30. Сонце встало
31. Ось веселка
32. Бджілонька-медилонька
33. Дбайливість
34. Подружки
35. У Ганнусі три лялюсі
36. Петрик-хлопчик
37. Де Оксана пробувала
38. Гарна дівчина Катруся
39. Гарна дівчинка Калинка
40. Мама хвора
Тривалість: 00:53:34
Мова: українська
Аудіо-кодек: FLAC
Бітрейт: 223 кб/с
Джерело: власний ріп
Звіт ЕАС про видобування:
Exact Audio Copy V1.1 from 23. June 2015

Отчёт EAC об извлечении, выполненном 29. декабря 2016, 12:17

Параска Плитка-Горицвіт / Казки-сміхівниці

Дисковод: ASUS DRW-2014L1T Adapter: 0 ID: 3

Режим чтения : Достоверность
Использование точного потока : Да
Отключение кэша аудио : Да
Использование указателей C2 : Нет

Коррекция смещения при чтении : 6
Способность читать области Lead-in и Lead-out : Нет
Заполнение пропущенных сэмплов тишиной : Да
Удаление блоков с тишиной в начале и конце : Нет
При вычислениях CRC использовались нулевые сэмплы : Да
Интерфейс : Установленный внешний ASPI-интерфейс

Выходной формат : Пользовательский кодировщик
Выбранный битрейт : 1024 kBit/s
Качество : Высокий
Добавление ID3-тега : Нет
Утилита сжатия : C:\Program Files (x86)\Exact Audio Copy\Flac\flac.exe
Дополнительные параметры : -V -8 -T "Date=%year%" -T "Genre=%genre%" %source%

TOC извлечённого CD

Трек | Старт | Длительность | Начальный сектор | Конечный сектор
---------------------------------------------------------------------
1 | 0:00.00 | 0:12.28 | 0 | 927
2 | 0:12.28 | 1:21.16 | 928 | 7018
3 | 1:33.44 | 1:32.31 | 7019 | 13949
4 | 3:06.00 | 1:44.10 | 13950 | 21759
5 | 4:50.10 | 1:48.14 | 21760 | 29873
6 | 6:38.24 | 1:41.50 | 29874 | 37498
7 | 8:19.74 | 1:37.15 | 37499 | 44788
8 | 9:57.14 | 1:34.25 | 44789 | 51863
9 | 11:31.39 | 1:34.74 | 51864 | 58987
10 | 13:06.38 | 1:46.24 | 58988 | 66961
11 | 14:52.62 | 1:40.23 | 66962 | 74484
12 | 16:33.10 | 1:50.58 | 74485 | 82792
13 | 18:23.68 | 1:49.67 | 82793 | 91034
14 | 20:13.60 | 1:40.24 | 91035 | 98558
15 | 21:54.09 | 1:49.27 | 98559 | 106760
16 | 23:43.36 | 1:43.00 | 106761 | 114485
17 | 25:26.36 | 1:51.73 | 114486 | 122883
18 | 27:18.34 | 1:45.07 | 122884 | 130765
19 | 29:03.41 | 1:53.61 | 130766 | 139301
20 | 30:57.27 | 1:32.54 | 139302 | 146255
21 | 32:30.06 | 1:50.14 | 146256 | 154519
22 | 34:20.20 | 1:33.71 | 154520 | 161565
23 | 35:54.16 | 1:32.58 | 161566 | 168523
24 | 37:26.74 | 1:42.72 | 168524 | 176245
25 | 39:09.71 | 1:46.13 | 176246 | 184208
26 | 40:56.09 | 1:37.04 | 184209 | 191487
27 | 42:33.13 | 1:42.11 | 191488 | 199148
28 | 44:15.24 | 1:47.53 | 199149 | 207226
29 | 46:03.02 | 0:10.03 | 207227 | 207979
30 | 46:13.05 | 0:31.60 | 207980 | 210364
31 | 46:44.65 | 0:38.38 | 210365 | 213252
32 | 47:23.28 | 0:33.19 | 213253 | 215746
33 | 47:56.47 | 1:25.11 | 215747 | 222132
34 | 49:21.58 | 0:13.71 | 222133 | 223178
35 | 49:35.54 | 0:24.53 | 223179 | 225031
36 | 50:00.32 | 0:41.53 | 225032 | 228159
37 | 50:42.10 | 0:37.58 | 228160 | 230992
38 | 51:19.68 | 0:49.13 | 230993 | 234680
39 | 52:09.06 | 0:35.05 | 234681 | 237310
40 | 52:44.11 | 0:50.00 | 237311 | 241060

Характеристики диапазона извлечения и сообщения об ошибках

Выбранный диапазон

Имя файла E:\Торент\КРИВОРІВНЯ ДУШІ\Параска Плитка-Горицвіт - Казки-сміхівниці.wav

Пиковый уровень 72.6 %
Скорость извлечения 7.6 X
Качество диапазона 100.0 %
CRC копии 10D280A1
Копирование... OK

Ошибок не произошло

Конец отчёта

==== Контрольная сумма отчёта 1D7B1F2C9065F6715A8EE97EAE0544EB026C0181EAF7F20BBD885889557A25FF ====
4. Книжка-буклет КРИВОРІВНЯ ДУШІ

Особиста оцінка: 10 - без зайвих вагань рекомендую всім!


Золотий реліз (завантажене не впливає на рейтинг)
 Трекер:    Зареєстрований   

Завантажити / скачати фільм українською



відео для новачків



 Зареєстрований:   2016-12-29 15:18
 Розмір:   4.04 GB 
 Оцінка фільму:   10/10 (Голосів: 7)
   
11FrYkT 
Модератор відео


З нами з: 20.02.11
Востаннє: 19.08.17
Повідомлень: 3807

2016-12-29 18:17  
Ваш часовий пояс: GMT + 2 Години

Нова тема   Відповісти