Кінець світу / End of Days (1999) Remux 1080р 2хUkr/Eng | Sub Eng

Нові коментарі

Нова тема   Відповісти
Останній раз роздавалося staf777 (2017-08-16)
Автор Повідомлення
staf777 
Відео Гуртом - підтримка та поширення
Відео Гуртом - підтримка та поширення


З нами з: 16.11.16
Востаннє: 16.08.17
Повідомлень: 522

2016-12-29 12:07  
Кінець світу / End of Days (1999) Remux 1080р 2хUkr/Eng | Sub Eng

Кінець світу / End of Days (1999) Remux 1080р 2хUkr/Eng | Sub Eng

український постер

Кінець світу / End of Days (1999) Remux 1080р 2хUkr/Eng | Sub Eng


Жанр: бойовик, жахи, фентезі, трилер, детектив
Країна: США



Кінокомпанія: Universal Pictures, Beacon Communications
Режисер: Пітер Хайамс
Актори: Арнольд Шварценеґер (Arnold Schwarzenegger), Гебріел Бірн, Кевін Поллак, Робін Туні, Сі Сі Ейч Паундер, Род Стайгер, Дерік О'Коннор, Міріам Марголіс

Сюжет:
Її народження боялися століттями. З початку ери в своїх самотніх келіях відлюдники переписували слова страшного пророкування. В глибині часів зірки передбачили немовляті страшну долю: вона повинна стати нареченою самого Диявола. І в кінці тисячоліття Сатана повстане з пекла, щоб вступити з нещасною в страшний союз. Якщо це станеться, на землі настане царство Зла і людство назавжди зануриться в темряву.

Жахливе пророкування, в яке боялися повірити, збулося. Князь темряви вирвався з ув'язнення у пошуках своєї нареченої. Час обернув назад, відраховуючи миті до рокового фіналу. Але провісники не врахували одного — того, хто наважився встати на дорозі у всесильного Люцифера, щоб наодинці зупинити Апокаліпсис.


Тривалість: 02:02:18
Якість: Remux 1080р
Відео:
кодек:
розмір кадру: 1920x1080
бітрейт: 17,5 Mб/с

Аудіо # 1:
мова: українська
переклад: багатоголосий закадровий
кодек: 5.1
бітрейт: 448 кб/с

Аудіо # 2:
мова: українська
переклад: двоголосий закадровий
кодек: 2.0
бітрейт: 192 кб/с

Аудіо # 3:
мова: англійська
переклад: оригінал
кодек: -HD MA 5.1
бітрейт: 4465 кб/с

Аудіо # 4:
мова: англійська
переклад: коментарі
бітрейт: 192 кб/с

Субтитри:
мова: англійська
тип: пререндерні
формат: PGS
Info
General
Unique ID : 235013432999873944360300867716894988918 (0xB0CDF0D7ED11A85AB849FE65E1889A76)
Complete name : M:\Фільми в HD\Жахи\End of Days (1999) [Ukr,Eng sub.Eng] Remux 1080p [Hurtom].
Format :
Format version : Version 4 / Version 2
File size : 19.4 GiB
Duration : 2h 2mn
Overall bit rate mode : Variable
Overall bit rate : 22.8 Mbps
Movie name : End of Days (1999) [Ukr,Eng sub.Eng] Remux 1080p [Hurtom]
Encoded date : UTC 2016-12-29 14:41:44
Writing application : mkvmerge v9.5.0 ('Quiet Fire') 64bit
Writing library : libebml v1.3.4 + libmatroska v1.4.5
Attachements : cover.jpg..jpg

Video
ID : 1
Format : AVC
Format/Info : Advanced Video Codec
Format profile : [email protected]
Format settings, CABAC : Yes
Format settings, ReFrames : 3 frames
Codec ID : V_MPEG4/ISO/AVC
Duration : 2h 2mn
Bit rate mode : Variable
Bit rate : 17.5 Mbps
Maximum bit rate : 40.0 Mbps
Width : 1 920 pixels
Height : 1 080 pixels
Display aspect ratio : 16:9
Frame rate mode : Constant
Frame rate : 23.976 (24000/1001) fps
Color space : YUV
Chroma subsampling : 4:2:0
Bit depth : 8 bits
Scan type : Progressive
Bits/(Pixel*Frame) : 0.351
Stream size : 14.9 GiB (77%)
Title : End of Days (1999)
Default : Yes
Forced : No

Audio #1
ID : 2
Format : AC-3
Format/Info : Audio Coding 3
Mode extension : CM (complete main)
Format settings, Endianness : Big
Codec ID : A_AC3
Duration : 2h 2mn
Bit rate mode : Constant
Bit rate : 448 Kbps
Channel(s) : 6 channels
Channel positions : Front: L C R, Side: L R, LFE
Sampling rate : 48.0 KHz
Frame rate : 31.250 fps (1536 spf)
Compression mode : Lossy
Stream size : 392 MiB (2%)
Title : UA-MVO
Language : Ukrainian
Default : Yes
Forced : Yes

Audio #2
ID : 3
Format : AC-3
Format/Info : Audio Coding 3
Mode extension : CM (complete main)
Format settings, Endianness : Big
Codec ID : A_AC3
Duration : 2h 2mn
Bit rate mode : Constant
Bit rate : 192 Kbps
Channel(s) : 2 channels
Channel positions : Front: L R
Sampling rate : 48.0 KHz
Frame rate : 31.250 fps (1536 spf)
Compression mode : Lossy
Stream size : 168 MiB (1%)
Title : UA-DVO
Language : Ukrainian
Default : No
Forced : Yes

Audio #3
ID : 4
Format :
Format/Info : Digital Theater Systems
Format profile : MA / Core
Mode : 16
Format settings, Endianness : Big
Codec ID : A_DTS
Duration : 2h 2mn
Bit rate mode : Variable / Constant
Bit rate : 4 465 Kbps / 1 509 Kbps
Channel(s) : 6 channels
Channel positions : Front: L C R, Side: L R, LFE
Sampling rate : 48.0 KHz
Frame rate : 93.750 fps (512 spf)
Bit depth : 24 bits
Compression mode : Lossless / Lossy
Delay relative to video : 6ms
Stream size : 3.81 GiB (20%)
Title : ORIGINAL
Language : English
Default : No
Forced : No

Audio #4
ID : 5
Format : AC-3
Format/Info : Audio Coding 3
Format profile : Dolby Digital
Mode extension : CM (complete main)
Format settings, Endianness : Big
Codec ID : A_AC3
Duration : 2h 2mn
Bit rate mode : Constant
Bit rate : 192 Kbps
Channel(s) : 2 channels
Channel positions : Front: L R
Sampling rate : 48.0 KHz
Frame rate : 31.250 fps (1536 spf)
Compression mode : Lossy
Delay relative to video : 16ms
Stream size : 168 MiB (1%)
Title : коментарі
Language : English
Default : No
Forced : No

Text
ID : 6
Format : PGS
Muxing mode : zlib
Codec ID : S_HDMV/PGS
Codec ID/Info : Picture based subtitle format used on BDs/HD-DVDs
Duration : 1h 52mn
Bit rate : 7 585 bps
Count of elements : 2157
Stream size : 6.08 MiB (0%)
Language : English
Default : Yes
Forced : No
Скріншоти


Джерело: &
Особиста оцінка: 10 - без зайвих вагань рекомендую всім!


Золотий реліз (завантажене не впливає на рейтинг)
 Трекер:    Зареєстрований   

Завантажити / скачати фільм українською



відео для новачків



 Зареєстрований:   2016-12-29 19:29
 Розмір:   19.45 GB 
 Оцінка фільму:   10/10 (Голосів: 5)
   
Інші релізи
   Кінець світу / End of Days (1999) 1080р 2хUkr/Eng | Sub Eng vovang6  1 / 1   11.35 GB   2015-03-20 19:27 
   Кінець світу / End of Days (1999) 2хUkr/Eng | Sub Eng rooster  5 / 0   2.96 GB   2012-05-09 15:18 
tarasich89 
Новенький


З нами з: 26.06.12
Востаннє: 08.08.17
Повідомлень: 7

2016-12-29 14:50  
Прикольний фільм. Сильно вражав мене в дитинстві) Варто дивитись, особливо, якщо любите Шварца.
lightinsight 
Свій


З нами з: 07.04.14
Востаннє: 21.08.17
Повідомлень: 58

2016-12-30 01:04  
Дякую Happy
Ваш часовий пояс: GMT + 2 Години

Нова тема   Відповісти