с. Єлена Герасим - ...Щоб розпізнати час (2011) [FLAC] | Folk

Нові коментарі

Нова тема   Відповісти
Автор Повідомлення
StefFanKo 
Новенький


З нами з: 17.09.13
Востаннє: 14.08.17
Повідомлень: 23

2016-12-28 21:30  
с. Єлена Герасим - ...Щоб розпізнати час (2011) [FLAC] | Folk

с. Єлена Герасим - ...Щоб розпізнати час (2011) [FLAC] | Folk


Стиль: Christian, Folk, Vocal
Країна, місто: Україна, Львів
Видавець: ТзОВ"ЛІДА"
Виконавці:
с. Єлена Герасим, редемптористка
Пісні:
    1. Зустріч
    (Сл. та муз. с. Єлена Герасим)
    2. Дорога за Христом
    (Сл. с. Марія Слєпченко, с. Єлена Герасим, муз с. Марія Слєпченко)
    3. Любов ніколи не минає
    (Сл. та муз. с. Єлена Герасим)
    4. ...Щоб розпінати час
    (Сл. та муз. с. Єлена Герасим)
    5. Найбільший дар
    (Сл. та муз. с. Єлена Герасим)
    6. На Різдво
    (Сл. та муз. с. Єлена Герасим)
    7. Кличу тебе
    (Сл. та муз. с. Єлена Герасим)
    8. Ніхто, крім Бога
    (Сл. та муз. с. Єлена Герасим)
    9. Пшеничне зерно
    (Сл. та муз. с. Єлена Герасим)
    10. Стань апостолом
    (Сл. та муз. с. Єлена Герасим, виконує с. Єлена Герасим, Олександр Лавриненко)

Тривалість: 00:36:13
Мова: українська
Аудіо-кодек: FLAC
Бітрейт: 732 кб/с
Джерело: власний ріп
Додаткова інформація:
Аудіо альбом авторських релігійних пісень, які виконує сестра Єлена Герасим, УГКЦ.
Звіт АЕС про видобування

Exact Audio Copy V1.0 beta 4 from 7. December 2014

Отчёт EAC об извлечении, выполненном 27. февраля 2015, 11:11

с. Єлена Герасим редемптористка / Щоб розпізнати час

Дисковод: TEAC CD-W552G Adapter: 0 ID: 0

Режим чтения : Достоверность
Использование точного потока : Да
Отключение кэша аудио : Да
Использование указателей C2 : Нет

Коррекция смещения при чтении : 6
Способность читать области Lead-in и Lead-out : Нет
Заполнение пропущенных сэмплов тишиной : Да
Удаление блоков с тишиной в начале и конце : Нет
При вычислениях CRC использовались нулевые сэмплы : Да
Интерфейс : Установленный внешний ASPI-интерфейс

Выходной формат : Пользовательский кодировщик
Выбранный битрейт : 1024 kBit/s
Качество : Высокий
Добавление ID3-тега : Да
Утилита сжатия : C:\Program Files\Exact Audio Copy\Flac\flac.exe
Дополнительные параметры : -V -8 -T "Date=%year%" -T "Genre=%genre%" %source%

TOC извлечённого CD

Трек | Старт | Длительность | Начальный сектор | Конечный сектор
---------------------------------------------------------------------
1 | 0:00.00 | 3:01.16 | 0 | 13590
2 | 3:01.16 | 4:19.63 | 13591 | 33078
3 | 7:21.04 | 4:22.18 | 33079 | 52746
4 | 11:43.22 | 3:22.38 | 52747 | 67934
5 | 15:05.60 | 3:28.48 | 67935 | 83582
6 | 18:34.33 | 3:51.08 | 83583 | 100915
7 | 22:25.41 | 2:47.63 | 100916 | 113503
8 | 25:13.29 | 3:21.08 | 113504 | 128586
9 | 28:34.37 | 3:23.16 | 128587 | 143827
10 | 31:57.53 | 4:15.24 | 143828 | 162976

Характеристики диапазона извлечения и сообщения об ошибках

Выбранный диапазон

Имя файла D:\с. Єлена Герасим ЩОБ РОЗПІЗНАТИ ЧАС\с. Єлена Герасим редемптористка - Щоб розпізнати час.wav

Пиковый уровень 100.0 %
Скорость извлечения 8.0 X
Качество диапазона 100.0 %
CRC теста DFF75211
CRC копии DFF75211
Копирование... OK

Ошибок не произошло

Конец отчёта

==== Контрольная сумма отчёта A9F10508A91F93DBA89F7887F17DDB2137E36205D14DB3AC1DFE301CCC178894 ====
Якщо Ви справді бажаєте підтримати українське - після прослуховування, якщо музика вам сподобалась, придбайте ліцензійний диск. Підтримаймо вітчизняних виконавців!


Срібний реліз (на рейтинг впливає 50% завантаженого)
 Трекер:    Зареєстрований   

Завантажити / скачати українську музику



відео для новачків



 Зареєстрований:   2016-12-29 16:09
 Розмір:   198 MB 
 Оцінка музики:   7/10 (Голосів: 6)
   
serhiy lysenko 
Новенький


З нами з: 03.04.15
Востаннє: 17.08.17
Повідомлень: 5

2016-12-29 16:50  
Чому звіт на російській мові?
StefFanKo 
Новенький


З нами з: 17.09.13
Востаннє: 14.08.17
Повідомлень: 23

2016-12-29 16:56  
Тому, що, нажаль, встановлений та налаштований ЕАС ...російською мовою...
ssTAss 
Модератор музики


З нами з: 05.07.08
Востаннє: 17.08.17
Повідомлень: 11761

2017-01-01 22:00  
обкладинка має бути до 600Х600
StefFanKo написано:
Стиль:

має бути заповнено
StefFanKo написано:
Сайти:

якщо немає офіційного сайту , то рядок витерти

StefFanKo 
Новенький


З нами з: 17.09.13
Востаннє: 14.08.17
Повідомлень: 23

2017-01-01 23:24  
Дякую, все виправив.
mojsej 
Новенький


З нами з: 27.11.09
Востаннє: 06.08.17
Повідомлень: 7

2017-01-04 01:52  
А можна викласти і в мп3 форматі? ДЯКУЮ.
StefFanKo 
Новенький


З нами з: 17.09.13
Востаннє: 14.08.17
Повідомлень: 23

2017-01-04 10:13  
mojsej , звичайно можна і в мр3 форматі. Ось https://toloka.to/t78793#863417
Ваш часовий пояс: GMT + 2 Години

Нова тема   Відповісти