Заслужена капела України "Трембіта" - Колядки, щедрівки (2001) [FLAC] | Chorus

Нові коментарі

Нова тема   Відповісти
Автор Повідомлення
romkop 
Новенький


З нами з: 26.05.09
Востаннє: 10.08.17
Повідомлень: 20

2016-12-28 18:31  
Заслужена капела України "Трембіта" - Колядки, щедрівки (2001) [FLAC] | Chorus

Заслужена капела України "Трембіта" - Колядки, щедрівки (2001) [FLAC] | Chorus


Стиль: Christian Classic Ethno
Країна, місто: Україна, Львів
Видавець: Гал рекордс
Виконавці:
Державна заслужена хорова капела України «Трембіта»
Керівник - Микола Кулик
Пісні:
    01 Христос рождається
    02 Бог предвічний
    03 Небо і земля
    04 Що то за предиво
    05 Радість нам ся явила
    06 Голосить вістку
    07 Не плач Рахиле
    08 На святий вечір
    09 Бог народився
    10 По всьому світу
    11 Во Вифлеємі
    12 Добрий вечір Тобі
    13 Чи дома, дома
    14 Щедрівка
    15 Ой сивая зозуленька
    16 Ой там за горою
    17 Дзвони дзвонять
    18 Пришлисме ту щедрици
    19 Коляда
    20 Трембіти

Тривалість: 00:53:06
Мова: українська
Аудіо-кодек: FLAC
Бітрейт: 882 кб/с
Джерело: власний диск


Срібний реліз (на рейтинг впливає 50% завантаженого)
 Трекер:    Зареєстрований   

Завантажити / скачати українську музику



відео для новачків



 Зареєстрований:   2016-12-28 18:31
 Розмір:   253 MB 
 Оцінка музики:   10/10 (Голосів: 9)
   
ssTAss 
Модератор музики


З нами з: 05.07.08
Востаннє: 18.08.17
Повідомлень: 11768

2016-12-30 00:22  
log
Exact Audio Copy V1.3 from 2. September 2016

EAC extraction logfile from 23. December 2016, 23:29

Трембіта / Колядки, щедрівки

Used drive : TSSTcorpCDDVDW SE-208AB Adapter: 1 ID: 0

Read mode : Secure
Utilize accurate stream : Yes
Defeat audio cache : No
Make use of C2 pointers : No

Combined read/write offset correction : 6
Overread into Lead-In and Lead-Out : No
Fill up missing offset samples with silence : Yes
Delete leading and trailing silent blocks : No
Null samples used in CRC calculations : Yes
Used interface : Native Win32 interface for Win NT & 2000
Gap handling : Not detected, thus appended to previous track

Used output format : User Defined Encoder
Selected bitrate : 768 kBit/s
Quality : High
Add ID3 tag : No
Command line compressor : C:\Program Files (x86)\Exact Audio Copy\FLAC\FLAC.EXE
Additional command line options : -6 -V -T "ARTIST=%artist%" -T "TITLE=%title%" -T "ALBUM=%albumtitle%" -T "DATE=%year%" -T "TRACKNUMBER=%tracknr%" -T "GENRE=%genre%" -T "COMMENT=%comment%" -T "BAND=%albuminterpret%" -T "ALBUMARTIST=%albuminterpret%" -T "COMPOSER=%composer%" %haslyrics%--tag-from-file=LYRICS="%lyricsfile%"%haslyrics% -T "DISCNUMBER=%cdnumber%" -T "TOTALDISCS=%totalcds%" -T "TOTALTRACKS=%numtracks%" %hascover%--picture="%coverfile%"%hascover% %source% -o %dest%

TOC of the extracted CD

Track | Start | Length | Start sector | End sector
---------------------------------------------------------
1 | 0:00.00 | 0:27.23 | 0 | 2047
2 | 0:27.23 | 3:43.52 | 2048 | 18824
3 | 4:11.00 | 2:43.64 | 18825 | 31113
4 | 6:54.64 | 3:39.56 | 31114 | 47594
5 | 10:34.45 | 2:03.63 | 47595 | 56882
6 | 12:38.33 | 2:46.45 | 56883 | 69377
7 | 15:25.03 | 3:49.71 | 69378 | 86623
8 | 19:14.74 | 3:04.22 | 86624 | 100445
9 | 22:19.21 | 2:51.47 | 100446 | 113317
10 | 25:10.68 | 1:58.09 | 113318 | 122176
11 | 27:09.02 | 3:55.54 | 122177 | 139855
12 | 31:04.56 | 2:49.45 | 139856 | 152575
13 | 33:54.26 | 2:51.52 | 152576 | 165452
14 | 36:46.03 | 1:59.42 | 165453 | 174419
15 | 38:45.45 | 2:12.23 | 174420 | 184342
16 | 40:57.68 | 2:04.56 | 184343 | 193698
17 | 43:02.49 | 2:44.64 | 193699 | 206062
18 | 45:47.38 | 2:16.07 | 206063 | 216269
19 | 48:03.45 | 3:28.54 | 216270 | 231923
20 | 51:32.24 | 1:25.64 | 231924 | 238362

Track 1

Filename C:\Users\romkop\Downloads\Musice ripped\01 Христос рождається.wav

Peak level 98.7 %
Extraction speed 3.9 X
Track quality 100.0 %
Copy CRC 53A4018C
Copy OK

Track 2

Filename C:\Users\romkop\Downloads\Musice ripped\02 Бог предвічний.wav

Peak level 97.3 %
Extraction speed 4.7 X
Track quality 100.0 %
Copy CRC 323D1183
Copy OK

Track 3

Filename C:\Users\romkop\Downloads\Musice ripped\03 Небо і земля.wav

Peak level 82.4 %
Extraction speed 5.1 X
Track quality 100.0 %
Copy CRC 0127634A
Copy OK

Track 4

Filename C:\Users\romkop\Downloads\Musice ripped\04 Що то за предиво.wav

Peak level 90.6 %
Extraction speed 5.3 X
Track quality 99.9 %
Copy CRC 500C4D1E
Copy OK

Track 5

Filename C:\Users\romkop\Downloads\Musice ripped\05 Радість нам ся явила.wav

Peak level 93.2 %
Extraction speed 5.3 X
Track quality 99.9 %
Copy CRC AC78BD08
Copy OK

Track 6

Filename C:\Users\romkop\Downloads\Musice ripped\06 Голосить вістку.wav

Peak level 86.3 %
Extraction speed 5.8 X
Track quality 100.0 %
Copy CRC 4E34899C
Copy OK

Track 7

Filename C:\Users\romkop\Downloads\Musice ripped\07 Не плач Рахиле.wav

Peak level 93.9 %
Extraction speed 6.2 X
Track quality 100.0 %
Copy CRC 047616E7
Copy OK

Track 8

Filename C:\Users\romkop\Downloads\Musice ripped\08 На святий вечір.wav

Peak level 79.4 %
Extraction speed 6.4 X
Track quality 100.0 %
Copy CRC BE09C150
Copy OK

Track 9

Filename C:\Users\romkop\Downloads\Musice ripped\09 Бог народився.wav

Peak level 92.2 %
Extraction speed 6.4 X
Track quality 99.9 %
Copy CRC 7BAF070B
Copy OK

Track 10

Filename C:\Users\romkop\Downloads\Musice ripped\10 По всьому світу.wav

Peak level 92.2 %
Extraction speed 6.6 X
Track quality 100.0 %
Copy CRC A6FB743E
Copy OK

Track 11

Filename C:\Users\romkop\Downloads\Musice ripped\11 Во Вифлеємі.wav

Peak level 96.9 %
Extraction speed 6.9 X
Track quality 99.9 %
Copy CRC 42F4BD6C
Copy OK

Track 12

Filename C:\Users\romkop\Downloads\Musice ripped\12 Добрий вечір Тобі.wav

Peak level 99.9 %
Extraction speed 7.2 X
Track quality 100.0 %
Copy CRC 3B854904
Copy OK

Track 13

Filename C:\Users\romkop\Downloads\Musice ripped\13 Чи дома, дома.wav

Peak level 80.4 %
Extraction speed 7.4 X
Track quality 100.0 %
Copy CRC 9462B22A
Copy OK

Track 14

Filename C:\Users\romkop\Downloads\Musice ripped\14 Щедрівка.wav

Peak level 88.3 %
Extraction speed 7.4 X
Track quality 100.0 %
Copy CRC 6CC98239
Copy OK

Track 15

Filename C:\Users\romkop\Downloads\Musice ripped\15 Ой сивая зозуленька.wav

Peak level 90.0 %
Extraction speed 7.5 X
Track quality 100.0 %
Copy CRC DAFDEA22
Copy OK

Track 16

Filename C:\Users\romkop\Downloads\Musice ripped\16 Ой там за горою.wav

Peak level 91.7 %
Extraction speed 7.5 X
Track quality 100.0 %
Copy CRC AC269FD8
Copy OK

Track 17

Filename C:\Users\romkop\Downloads\Musice ripped\17 Дзвони дзвонять.wav

Peak level 98.7 %
Extraction speed 7.9 X
Track quality 100.0 %
Copy CRC CD164C4F
Copy OK

Track 18

Filename C:\Users\romkop\Downloads\Musice ripped\18 Пришлисме ту щедрици.wav

Peak level 96.6 %
Extraction speed 7.7 X
Track quality 99.9 %
Copy CRC B216DACE
Copy OK

Track 19

Filename C:\Users\romkop\Downloads\Musice ripped\19 Коляда.wav

Peak level 97.7 %
Extraction speed 8.2 X
Track quality 100.0 %
Copy CRC EEEAC918
Copy OK

Track 20

Filename C:\Users\romkop\Downloads\Musice ripped\20 Трембіти.wav

Peak level 99.4 %
Extraction speed 7.8 X
Track quality 100.0 %
Copy CRC B82BA888
Copy OK

No errors occurred

End of status report

---- CUETools DB Plugin V2.1.6

[CTDB TOCID: iQ93tVniNfMIbdea_f8BDGD9HAE-] disk not present in database
Submit result: iQ93tVniNfMIbdea_f8BDGD9HAE- has been uploaded
а куе з тими файлами працювати не буде
в куе вав, а в роздачі флак
але це не велика біда, дякую за диск

romkop 
Новенький


З нами з: 26.05.09
Востаннє: 10.08.17
Повідомлень: 20

2016-12-30 23:34  
ssTAss написано:

а куе з тими файлами працювати не буде
в куе вав, а в роздачі флак
але це не велика біда, дякую за диск


Тобто потрібно було поміняти назви файлів з wav на flac?
Веселого нового року!

Ваш часовий пояс: GMT + 2 Години

Нова тема   Відповісти