Алоха / Aloha (2015) Remux 1080p Ukr/Eng | Sub Ukr/Eng

Нові коментарі

Нова тема   Відповісти
Останній раз роздавалося staf777 (2017-11-06)
Автор Повідомлення
staf777 
Відео Гуртом - підтримка та поширення
Відео Гуртом - підтримка та поширення


З нами з: 16.11.16
Востаннє: 06.11.17
Повідомлень: 522

2016-12-27 21:04  
Алоха / Aloha (2015) Remux 1080p Ukr/Eng | Sub Ukr/Eng

Алоха / Aloha (2015) Remux 1080p Ukr/Eng | Sub Ukr/Eng


Жанр: комедія, драма, романтичний
Країна: США



Кінокомпанія: Columbia Pictures, Regency Enterprises, LStar Capital
Режисер: Кемерон Кроу
Актори: Бредлі Купер, Емма Стоун, Рейчел МакАдамс, Білл Мюррей, Джон Красінскі, Денні МакБрайд, Алек Болдвін, Білл Кемп, Джейден Ліберер, Даніель Роуз Расселл, Майкл Чернус, Еді Ґатеґі, Елізабет Марвел, Івана Мілічевіч, Фагім Фазлі, Семер-Аб Етмет Йоганнес, Ліс Бремлет, Дон Д. Девіс, Джарретт Піеске, Стівен М. Мерджа

Сюжет:
37-річний дискредитований американський консультант з озброєння Браян Джілкрест не подобається практично всім людям, які його оточують. Його єдиний друг - технік Джеремі. У відповідь на агресію з боку Китаю Джілкреста відправляють на недіючу військову базу на Гаваях, щоб звідти він контролював запуск сучасного супутника-шпигуна. Це завдання зведе його з дівчиною на ім'я Трейсі...


Тривалість: 01:44:38
Якість: Remux 1080p
Відео:
кодек:
розмір кадру: 1920x1080
бітрейт: 24869 кб/с

Аудіо # 1:
мова: українська
переклад: професійний дубльований
кодек: 2.0
бітрейт: 192 кб/с

Аудіо # 2:
мова: англійська
переклад: оригінал
кодек: -HD MA 5.1
бітрейт: 2149 кб/с

Аудіо # 3:
мова: англійська
переклад: коментарі
кодек: 2.0
бітрейт: 192 кб/с

Аудіо # 4:
мова: англійська
переклад: коментарі
кодек: 2.0
бітрейт: 192 кб/с

Субтитри # 1-2: (форсовані, повні)
мова: українська
тип: пререндерні
формат: PGS

Субтитри # 3-5: (форсовані, повні, SDH)
мова: англійська
тип: пререндерні
формат: PGS
Info

Unique ID : 235911118367388164811678497105865307212 (0xB17AD4263125F5D4BF3AB523E487744C)
Complete name : M:\Фільми в HD\Комедія\Aloha (2015)[Ukr,Eng sub.Ukr,Eng]Remux 1080p [Hurtom].
Format :
Format version : Version 4 / Version 2
File size : 20.2 GiB
Duration : 1h 44mn
Overall bit rate mode : Variable
Overall bit rate : 27.7 Mbps
Movie name : Aloha (2015)[Ukr,Eng sub.Ukr,Eng]Remux 1080p [Hurtom]
Encoded date : UTC 2016-12-28 15:09:46
Writing application : mkvmerge v9.5.0 ('Quiet Fire') 64bit
Writing library : libebml v1.3.4 + libmatroska v1.4.5
Attachements : cover.jpg..jpg

Video
ID : 1
Format : AVC
Format/Info : Advanced Video Codec
Format profile : [email protected]
Format settings, CABAC : Yes
Format settings, ReFrames : 2 frames
Format settings, GOP : M=1, N=10
Codec ID : V_MPEG4/ISO/AVC
Duration : 1h 44mn
Bit rate mode : Variable
Bit rate : 24.9 Mbps
Width : 1 920 pixels
Height : 1 080 pixels
Display aspect ratio : 16:9
Frame rate mode : Constant
Frame rate : 23.976 (24000/1001) fps
Color space : YUV
Chroma subsampling : 4:2:0
Bit depth : 8 bits
Scan type : Progressive
Bits/(Pixel*Frame) : 0.500
Stream size : 18.2 GiB (90%)
Title : Remux 1080p
Default : Yes
Forced : No

Audio #1
ID : 2
Format : AC-3
Format/Info : Audio Coding 3
Mode extension : CM (complete main)
Format settings, Endianness : Big
Codec ID : A_AC3
Duration : 1h 44mn
Bit rate mode : Constant
Bit rate : 192 Kbps
Channel(s) : 2 channels
Channel positions : Front: L R
Sampling rate : 48.0 KHz
Frame rate : 31.250 fps (1536 spf)
Compression mode : Lossy
Stream size : 144 MiB (1%)
Title : [UA-DUB]
Language : Ukrainian
Default : Yes
Forced : Yes

Audio #2
ID : 3
Format :
Format/Info : Digital Theater Systems
Format profile : MA / Core
Mode : 16
Format settings, Endianness : Big
Codec ID : A_DTS
Duration : 1h 44mn
Bit rate mode : Variable / Constant
Bit rate : 2 149 Kbps / 1 509 Kbps
Channel(s) : 6 channels
Channel positions : Front: L C R, Side: L R, LFE
Sampling rate : 48.0 KHz
Frame rate : 93.750 fps (512 spf)
Bit depth : 16 bits
Compression mode : Lossless / Lossy
Stream size : 1.57 GiB (8%)
Title : ORIGINAL
Language : English
Default : No
Forced : No

Audio #3
ID : 4
Format : AC-3
Format/Info : Audio Coding 3
Format profile : Dolby Digital
Mode extension : CM (complete main)
Format settings, Endianness : Big
Codec ID : A_AC3
Duration : 1h 44mn
Bit rate mode : Constant
Bit rate : 192 Kbps
Channel(s) : 2 channels
Channel positions : Front: L R
Sampling rate : 48.0 KHz
Frame rate : 31.250 fps (1536 spf)
Compression mode : Lossy
Delay relative to video : -7ms
Stream size : 144 MiB (1%)
Language : English
Default : No
Forced : No

Audio #4
ID : 5
Format : AC-3
Format/Info : Audio Coding 3
Format profile : Dolby Digital
Mode extension : CM (complete main)
Format settings, Endianness : Big
Codec ID : A_AC3
Duration : 1h 44mn
Bit rate mode : Constant
Bit rate : 192 Kbps
Channel(s) : 2 channels
Channel positions : Front: L R
Sampling rate : 48.0 KHz
Frame rate : 31.250 fps (1536 spf)
Compression mode : Lossy
Delay relative to video : -7ms
Stream size : 144 MiB (1%)
Language : English
Default : No
Forced : No

Text #1
ID : 6
Format : PGS
Muxing mode : zlib
Codec ID : S_HDMV/PGS
Codec ID/Info : Picture based subtitle format used on BDs/HD-DVDs
Duration : 13mn 13s
Bit rate : 996 bps
Count of elements : 20
Stream size : 96.5 KiB (0%)
Language : Ukrainian
Default : Yes
Forced : No

Text #2
ID : 7
Format : PGS
Muxing mode : zlib
Codec ID : S_HDMV/PGS
Codec ID/Info : Picture based subtitle format used on BDs/HD-DVDs
Duration : 1h 42mn
Bit rate : 22.5 Kbps
Count of elements : 3094
Stream size : 16.6 MiB (0%)
Language : Ukrainian
Default : No
Forced : No

Text #3
ID : 8
Format : PGS
Muxing mode : zlib
Codec ID : S_HDMV/PGS
Codec ID/Info : Picture based subtitle format used on BDs/HD-DVDs
Duration : 1h 44mn
Bit rate : 18.1 Kbps
Count of elements : 3219
Stream size : 13.5 MiB (0%)
Language : English
Default : No
Forced : No

Text #4
ID : 9
Format : PGS
Muxing mode : zlib
Codec ID : S_HDMV/PGS
Codec ID/Info : Picture based subtitle format used on BDs/HD-DVDs
Duration : 1h 37mn
Bit rate : 15.7 Kbps
Count of elements : 2500
Stream size : 11.0 MiB (0%)
Language : English
Default : No
Forced : No

Text #5
ID : 10
Format : PGS
Muxing mode : zlib
Codec ID : S_HDMV/PGS
Codec ID/Info : Picture based subtitle format used on BDs/HD-DVDs
Duration : 1h 44mn
Bit rate : 25.5 Kbps
Count of elements : 3388
Stream size : 19.0 MiB (0%)
Language : English
Default : No
Forced : No
Скріншоти





Джерело: &
Особиста оцінка: 0 - не дивився


Золотий реліз (завантажене не впливає на рейтинг)
 Трекер:    Зареєстрований   

Завантажити / скачати фільм українською



відео для новачків



 Зареєстрований:   2016-12-28 18:42
 Розмір:   20.23 GB 
 Оцінка фільму:   8.1/10 (Голосів: 7)
   
Інші релізи
   Алоха / Aloha (2015) Ukr/Eng | Sub Ukr/Eng Gelios  6 / 0   1.45 GB   2015-09-21 20:56 
   Алоха / Aloha (2015) AVC Ukr | Sub Ukr patriot2305  10 / 0   1.75 GB   2015-09-21 17:54 
   Алоха / Aloha (2015) 1080p Ukr/Eng | Sub Ukr/Eng 11FrYkT  1 / 0   13.42 GB   2015-09-21 17:48 
   Алоха / Aloha (2015) 720p Ukr/Eng | Sub Ukr/Eng 11FrYkT  3 / 0   6.9 GB   2015-09-21 17:48 
Ваш часовий пояс: GMT + 2 Години

Нова тема   Відповісти