Історія вічного кохання, або Попелюшка / EverAfter / Ever After: A Cinderella Story (1998) 720p Ukr/Eng | Sub Ukr/Eng

Нові коментарі

Нова тема   Відповісти
Автор Повідомлення
staf777 
Відео Гуртом - підтримка та поширення
Відео Гуртом - підтримка та поширення


З нами з: 16.11.16
Востаннє: 11.09.17
Повідомлень: 522

2016-12-27 19:47  
Історія вічного кохання, або Попелюшка / Ever After (1998) 720p Ukr/Eng | Sub Ukr/Eng

Історія вічного кохання, або Попелюшка / EverAfter / Ever After: A Cinderella Story (1998) 720p Ukr/Eng | Sub Ukr/Eng


Жанр: драма, комедія, мелодрама, фентезі
Країна: США



Кінокомпанія: Twentieth Century Fox Film Corporation
Режисер: Енді Теннант
Актори: Дрю Беррімор, Анджеліка Г'юстон, Даґрей Скотт, Патрік Ґодфрі, Меґан Доддс, Мелані Лінскі, Тімоті Вест, Джуді Парфітт, Йерон Краббе, Лі Інґлебі, Кейт Ленсбері, Волтер Спарров та інші

Сюжет:
Ще одна версія старої, доброї казки про Попелюшку, в якій дівчину, яка мріє про принца звати Даніеллою, а в якості феї виступає Леонардо да Вінчі. Несподівано? Ще й як. Тим більше, що у фільмі немає жодної магії, а усі дива рукотворні і тим цінніше.


Тривалість: 02:01:13
Якість: 720p
Відео:
кодек:
розмір кадру: 1280x544
бітрейт: 7700 кб/с

Аудіо # 1:
мова: українська
переклад: двоголосий закадровий
кодек: 2.0
бітрейт: 192 кб/с

Аудіо # 2:
мова: англійська
переклад: оригінал
кодек: 5.1
бітрейт: 1509 кб/с

Субтитри:
мова: українська
тип: програмні (м'які)
формат: *.srt

Субтитри:
мова: англійська
тип: програмні (м'які)
формат: *.srt
Info
General
Unique ID : 233503109580312652552672933173174904040 (0xAFAB102653BFC3CD9F7A8308DFCAA4E8)
Complete name : M:\HD-Club\Ever After (1998) [Ukr,Eng sub.Ukr,Eng] 720p [Hurtom].
Format :
Format version : Version 4 / Version 2
File size : 7.96 GiB
Duration : 2h 1mn
Overall bit rate : 9 402 Kbps
Movie name : Ever After (1998) [Ukr,Eng sub.Ukr,Eng] 720p [Hurtom]
Encoded date : UTC 2016-12-28 06:30:03
Writing application : mkvmerge v9.5.0 ('Quiet Fire') 64bit
Writing library : libebml v1.3.4 + libmatroska v1.4.5
Attachements : cover.jpg

Video
ID : 1
Format : AVC
Format/Info : Advanced Video Codec
Format profile : [email protected]
Format settings, CABAC : Yes
Format settings, ReFrames : 12 frames
Codec ID : V_MPEG4/ISO/AVC
Duration : 2h 1mn
Bit rate : 7 700 Kbps
Width : 1 280 pixels
Height : 544 pixels
Display aspect ratio : 2.35:1
Frame rate mode : Constant
Frame rate : 23.976 (24000/1001) fps
Color space : YUV
Chroma subsampling : 4:2:0
Bit depth : 8 bits
Scan type : Progressive
Bits/(Pixel*Frame) : 0.461
Stream size : 6.52 GiB (82%)
Title : Ever After (1998) 720p
Writing library : core 148 r2638+53 bb29004 t_mod_Custom [[email protected] X86_64]
Encoding settings : cabac=1 / ref=12 / deblock=1:-3:-3 / analyse=0x3:0x133 / me=umh / subme=11 / psy=1 / fade_compensate=0.00 / psy_rd=1.10:0.05 / mixed_ref=1 / me_range=24 / chroma_me=1 / trellis=2 / 8x8dct=1 / cqm=0 / deadzone=21,11 / fast_pskip=0 / chroma_qp_offset=-3 / threads=6 / lookahead_threads=1 / sliced_threads=0 / nr=0 / decimate=1 / interlaced=0 / bluray_compat=0 / constrained_intra=0 / fgo=0 / bframes=11 / b_pyramid=2 / b_adapt=2 / b_bias=0 / direct=3 / weightb=1 / open_gop=0 / weightp=2 / keyint=250 / keyint_min=23 / scenecut=40 / intra_refresh=0 / rc=2pass / mbtree=0 / bitrate=7700 / ratetol=1.0 / qcomp=0.70 / qpmin=0:0:0 / qpmax=69:69:69 / qpstep=4 / cplxblur=20.0 / qblur=0.5 / ip_ratio=1.30 / pb_ratio=1.20 / aq=3:0.65 / aq-sensitivity=10.00 / aq-factor=1.00:1.00:1.00 / aq2=0 / aq3=0
Language : English
Default : Yes
Forced : No
Color range : Limited
Matrix coefficients : BT.709

Audio #1
ID : 2
Format : AC-3
Format/Info : Audio Coding 3
Mode extension : CM (complete main)
Format settings, Endianness : Big
Codec ID : A_AC3
Duration : 2h 1mn
Bit rate mode : Constant
Bit rate : 192 Kbps
Channel(s) : 2 channels
Channel positions : Front: L R
Sampling rate : 48.0 KHz
Frame rate : 31.250 fps (1536 spf)
Compression mode : Lossy
Stream size : 166 MiB (2%)
Title : [UA-DVO]
Language : Ukrainian
Default : Yes
Forced : Yes

Audio #2
ID : 3
Format :
Format/Info : Digital Theater Systems
Mode : 16
Format settings, Endianness : Big
Codec ID : A_DTS
Duration : 2h 1mn
Bit rate mode : Constant
Bit rate : 1 509 Kbps
Channel(s) : 6 channels
Channel positions : Front: L C R, Side: L R, LFE
Sampling rate : 48.0 KHz
Frame rate : 93.750 fps (512 spf)
Bit depth : 24 bits
Compression mode : Lossy
Stream size : 1.28 GiB (16%)
Title : Original
Language : English
Default : No
Forced : No

Text #1
ID : 4
Format : UTF-8
Codec ID : S_TEXT/UTF8
Codec ID/Info : UTF-8 Plain Text
Duration : 1h 59mn
Bit rate : 76 bps
Count of elements : 1431
Stream size : 67.5 KiB (0%)
Language : Ukrainian
Default : No
Forced : No

Text #2
ID : 5
Format : UTF-8
Codec ID : S_TEXT/UTF8
Codec ID/Info : UTF-8 Plain Text
Duration : 1h 59mn
Bit rate : 50 bps
Count of elements : 1459
Stream size : 44.8 KiB (0%)
Language : English
Default : No
Forced : No
Скріншоти




Джерело: &
Особиста оцінка: 0 - не дивився



Срібний реліз (на рейтинг впливає 50% завантаженого)
 Трекер:    Зареєстрований   

Завантажити / скачати фільм українською



відео для новачків



 Зареєстрований:   2016-12-28 10:34
 Розмір:   7.96 GB 
 Оцінка фільму:   10/10 (Голосів: 3)
   
Ваш часовий пояс: GMT + 2 Години

Нова тема   Відповісти