Дев'ята брама (Дев'яті врата) / The Ninth Gate (1999) Remux 1080p 2xUkr/Eng | Sub Eng

Нові коментарі

Нова тема   Відповісти
Останній раз роздавалося staf777 (2017-11-06)
Автор Повідомлення
Anonymous 







2016-12-27 13:16  
Дев'ята брама / Дев'яті врата / The Ninth Gate (1999) Remux 1080p 2xUkr/Eng | Sub Eng

Альтернативний український постер



Жанр: детектив, містика, трилер
Країна: США, Франція, Іспанія



Кінокомпанія: Artisan Entertainment, R.P. Productions, Orly Films
Режисер: Роман Поланські (Roman Polanski)
Актори: Джоні Деп (Johnny Depp), Френк Ланґелла (Frank Langella), Лєна Олін (Lena Olin), Еммануель Сіґнер (Emmanuelle Seigner), Барбара Джефорд (Barbara Jefford), Джек Тейлор (Jack Taylor), Хосе Лопез Родеро (José López Rodero), Тоні Амоні (Tony Amoni), Джеймс Руссо (James Russo), Вілі Гольт (Willy Holt) та інші.

Сюжет:
Дін Корсо, один з найкращих фахівців з пошуку, оцінки та скуповування раритетних видань, приймає від власника найбільшої у світі бібліотеки окультних книг - незвичайне, але досить вигідне замовлення: визначити справжність книги, фоліанта XVII століття під назвою «Дев'яті врата у царство примар», за допомогою якої, можна викликати самого Люцифера.

Але тільки тоді, коли на шляху до розгадки таємниці «Дев'яті врата» починають з'являтися трупи тих, з ким Дін Корсо зустрічався зовсім недавно, йому відкривається зловісна правда. Він розуміє, що в цій диявольській грі на кін поставлено не тільки його життя, але й душа ...


Тривалість: 02:13:15
Якість: Remux
Відео:
кодек:
розмір кадру: 1920x1080
бітрейт: ~34,8 Мбіт/с

Аудіо # 1:
мова: українська
переклад: багатоголосий закадровий
кодек: 2.0
бітрейт: 192 кб/с
Джерело озвучення:


Аудіо # 2:
мова: українська
переклад: багатоголосий закадровий
кодек: 5.1
бітрейт: 384 кб/с
Джерело озвучення:


Аудіо # 3:
мова: англійська
переклад: оригінал
кодек: -HD MA 7.1
бітрейт: 4766 кб/с
Джерело озвучення:


Аудіо # 4:
мова: англійська
переклад: коментарі режисера Романа Поланські
кодек: 2.0
бітрейт: 224 кб/с
Джерело озвучення:


Субтитри:
мова: англійська
тип: програмні (м'які)
формат: *.srt
Info
General
Unique ID : 191567120888999279015294512337801033519 (0x901E7C46523E53BED2C7C50DA2D5B72F)
Format :
Format version : Version 4 / Version 2
File size : 37.5 GiB
Duration : 2h 13mn
Overall bit rate mode : Variable
Overall bit rate : 40.3 Mbps
Encoded date : UTC 2016-12-23 18:49:38
Writing application : mkvmerge v7.3.0 ('Nouages') 64bit built on Oct 23 2014 13:14:01
Writing library : libebml v1.3.0 + libmatroska v1.4.1
DURATION : 02:13:14.816000000
NUMBER_OF_FRAMES : 249838
NUMBER_OF_BYTES : 383751168
_STATISTICS_WRITING_APP : mkvmerge v7.3.0 ('Nouages') 64bit built on Oct 23 2014 13:14:01
_STATISTICS_WRITING_DATE_UTC : 2016-12-23 18:49:38
_STATISTICS_TAGS : BPS DURATION NUMBER_OF_FRAMES NUMBER_OF_BYTES

Video
ID : 1
Format : AVC
Format/Info : Advanced Video Codec
Format profile : [email protected]
Format settings, CABAC : Yes
Format settings, ReFrames : 4 frames
Format settings, GOP : M=3, N=12
Codec ID : V_MPEG4/ISO/AVC
Duration : 2h 13mn
Bit rate mode : Variable
Maximum bit rate : 37.0 Mbps
Width : 1 920 pixels
Height : 1 080 pixels
Display aspect ratio : 16:9
Frame rate mode : Constant
Frame rate : 23.976 fps
Color space : YUV
Chroma subsampling : 4:2:0
Bit depth : 8 bits
Scan type : Progressive
Default : Yes
Forced : No
Color primaries : BT.709
Transfer characteristics : BT.709
Matrix coefficients : BT.709

Audio #1
ID : 2
Format : AC-3
Format/Info : Audio Coding 3
Mode extension : CM (complete main)
Format settings, Endianness : Big
Codec ID : A_AC3
Duration : 2h 13mn
Bit rate mode : Constant
Bit rate : 192 Kbps
Channel(s) : 2 channels
Channel positions : Front: L R
Sampling rate : 48.0 KHz
Bit depth : 16 bits
Compression mode : Lossy
Stream size : 183 MiB (0%)
Title : 1+1
Language : Ukrainian
Default : Yes
Forced : Yes

Audio #2
ID : 3
Format : AC-3
Format/Info : Audio Coding 3
Mode extension : CM (complete main)
Format settings, Endianness : Big
Codec ID : A_AC3
Duration : 2h 13mn
Bit rate mode : Constant
Bit rate : 384 Kbps
Channel(s) : 6 channels
Channel positions : Front: L C R, Side: L R, LFE
Sampling rate : 48.0 KHz
Bit depth : 16 bits
Compression mode : Lossy
Stream size : 366 MiB (1%)
Title : ICTV
Language : Ukrainian
Default : No
Forced : No

Audio #3
ID : 4
Format :
Format/Info : Digital Theater Systems
Format profile : MA / Core
Mode : 16
Format settings, Endianness : Big
Codec ID : A_DTS
Duration : 2h 13mn
Bit rate mode : Variable
Bit rate : Unknown / 1 509 Kbps
Channel(s) : 8 channels / 6 channels
Channel positions : Front: L C R, Side: L R, Back: L R, LFE / Front: L C R, Side: L R, LFE
Sampling rate : 48.0 KHz
Bit depth : 24 bits
Compression mode : Lossless / Lossy
Title : Original
Language : English
Default : No
Forced : No

Audio #4
ID : 5
Format : AC-3
Format/Info : Audio Coding 3
Format profile : Dolby Digital
Mode extension : CM (complete main)
Format settings, Endianness : Big
Codec ID : A_AC3
Duration : 2h 13mn
Bit rate mode : Constant
Bit rate : 224 Kbps
Channel(s) : 2 channels
Channel positions : Front: L R
Sampling rate : 48.0 KHz
Bit depth : 16 bits
Compression mode : Lossy
Stream size : 213 MiB (1%)
Title : Original (comments)
Language : English
Default : No
Forced : No

Text
ID : 6
Format : UTF-8
Codec ID : S_TEXT/UTF8
Codec ID/Info : UTF-8 Plain Text
Title : English Sub
Language : English
Default : No
Forced : No
Скріншоти



Джерело: &
Українські доріжки - 1+1: servus12 запис з ТБ, DеLight зведення; ICTV: robotron005 запис з ТБ, Romario_O зведення; постери - hellforces, somnambula
Особиста оцінка: 10 - без зайвих вагань рекомендую всім!


Золотий реліз (завантажене не впливає на рейтинг)
 Трекер:    Зареєстрований   

Завантажити / скачати фільм українською



відео для новачків



 Зареєстрований:   2016-12-27 13:16
 Розмір:   37.5 GB 
 Оцінка фільму:   10/10 (Голосів: 6)
   
igor911 
Відео Гуртом
Відео Гуртом


З нами з: 18.01.08
Востаннє: 16.12.17
Повідомлень: 8507

2016-12-27 14:31  
Anonymous, замість "DTH-HD" правильно вказувати "DTH-HD MA", де MA - master audio.
Не забувай вказувати, хто працював над укр.доріжками, постерами і т.д., чому я маю робити це за тебе?

EvGaS 
Відео Гуртом - субтитрування
Відео Гуртом - субтитрування


З нами з: 27.02.12
Востаннє: 16.12.17
Повідомлень: 4290

2016-12-27 14:58  
О, доволі ранній й молодий Деп, ще до істерії з Піратами. Якщо хочете полоскотати собі нерви та пошкребти тарганами в макітрі — саме те. Взагалі, фільм можна було б назвати заклішованим усім на цю тематику ще коли вийшов, але настільки гарно зроблений і виважений зі штампами, що інакше як класикою жанру його не назвеш.
Ваш часовий пояс: GMT + 2 Години

Нова тема   Відповісти