Kapela Romana Kumłyka - Czeremosz Muzyka huculska (2002) [FLAC] | Folk

Нові коментарі

Нова тема   Відповісти
Автор Повідомлення
StefFanKo 
Новенький


З нами з: 17.09.13
Востаннє: 14.08.17
Повідомлень: 23

2016-12-27 09:45  

Kapela Romana Kumłyka
Czeremosz - Muzyka huculska (2002) [FLAC] | Folk

Kapela Romana Kumłyka - Czeremosz Muzyka huculska (2002) [FLAC] | Folk


Стиль: Folk
Країна, місто: Україна, Верховина
Видавець: Польша
Виконавці:
Роман Кумлик
Гуцульська капелла «Черемош»
Пісні:

1. Trembity
2. Legenda o pasterzu co owce zgubił
3. Telenka
4. Zazula
5. O Karpatach
6. Arkan
7. Rachowskie śpiewanki
8. Hucułka ślubna
9. Reszeto
10. Koza
11. Polka bukowińska
12. Cymbały
13. Hucułka bukowińska
14. Weselne śpiewanki
15. Hucułka kołomyjska
16. Polka mołdawska
17. Kolęda, plies
18. Kolęda przed chatą
19. Kolęda, kruhlyk

Тривалість: 00:60:00
Мова: українська
Аудіо-кодек: FLAC
Бітрейт: 698 кб/с
Джерело: власний ріп
Додаткова інформація:
Даний альбом був записаний на студії в Польші. Ріп зроблений із копії диску, який мав нагоду придбати у Верховині в пам'ять славного музиканта-віртуоза, «людину-оркестр» та патріота Гуцульського краю - Романа Кумлика.
Звіт ЕАС про видобування
Exact Audio Copy V1.1 from 23. June 2015

Отчёт EAC об извлечении, выполненном 28. декабря 2016, 14:17

Kapela Romana Kumlyka / Czeremosz - Muzyka huculska

Дисковод: ASUS DRW-2014L1T Adapter: 0 ID: 3

Режим чтения : Достоверность
Использование точного потока : Да
Отключение кэша аудио : Да
Использование указателей C2 : Нет

Коррекция смещения при чтении : 6
Способность читать области Lead-in и Lead-out : Нет
Заполнение пропущенных сэмплов тишиной : Да
Удаление блоков с тишиной в начале и конце : Нет
При вычислениях CRC использовались нулевые сэмплы : Да
Интерфейс : Установленный внешний ASPI-интерфейс

Выходной формат : Пользовательский кодировщик
Выбранный битрейт : 1024 kBit/s
Качество : Высокий
Добавление ID3-тега : Нет
Утилита сжатия : C:\Program Files (x86)\Exact Audio Copy\Flac\flac.exe
Дополнительные параметры : -V -8 -T "Date=%year%" -T "Genre=%genre%" %source%

TOC извлечённого CD

Трек | Старт | Длительность | Начальный сектор | Конечный сектор
---------------------------------------------------------------------
1 | 0:00.00 | 0:36.52 | 0 | 2751
2 | 0:36.52 | 4:28.25 | 2752 | 22876
3 | 5:05.02 | 2:57.38 | 22877 | 36189
4 | 8:02.40 | 4:44.34 | 36190 | 57523
5 | 12:46.74 | 5:48.41 | 57524 | 83664
6 | 18:35.40 | 4:00.04 | 83665 | 101668
7 | 22:35.44 | 3:47.25 | 101669 | 118718
8 | 26:22.69 | 6:33.13 | 118719 | 148206
9 | 32:56.07 | 2:50.68 | 148207 | 161024
10 | 35:47.00 | 2:34.35 | 161025 | 172609
11 | 38:21.35 | 2:49.35 | 172610 | 185319
12 | 41:10.70 | 2:15.18 | 185320 | 195462
13 | 43:26.13 | 2:48.30 | 195463 | 208092
14 | 46:14.43 | 4:48.02 | 208093 | 229694
15 | 51:02.45 | 6:43.22 | 229695 | 259941
16 | 57:45.67 | 5:41.54 | 259942 | 285570
17 | 63:27.46 | 2:01.69 | 285571 | 294714
18 | 65:29.40 | 2:42.55 | 294715 | 306919
19 | 68:12.20 | 1:03.03 | 306920 | 311647

Характеристики диапазона извлечения и сообщения об ошибках

Выбранный диапазон

Имя файла E:\ЕАС роботи\Kapela Romana Kumlyka - Czeremosz - Muzyka huculska.wav

Пиковый уровень 66.2 %
Скорость извлечения 8.1 X
Качество диапазона 99.9 %
CRC копии 254580A8
Копирование... OK

Ошибок не произошло

Конец отчёта

==== Контрольная сумма отчёта FB0D97017F69BF7A3633C7A37D6497C6B5B2080B03DEBCE2362CC774E393C4B0 ====

Обкладинки альбому взяті з інтернету

Якщо Ви справді бажаєте підтримати українське - після прослуховування, якщо музика вам сподобалась, придбайте ліцензійний диск. Підтримаймо вітчизняних виконавців!


 Трекер:    Зареєстрований   

Завантажити / скачати українську музику



відео для новачків



 Зареєстрований:   2016-12-28 15:36
 Розмір:   346 MB 
 Оцінка музики:   10/10 (Голосів: 5)
   
bohun 
VIP


З нами з: 21.03.09
Востаннє: 20.08.17
Повідомлень: 302

2016-12-27 13:33  
Поки що не маю можливості скачати/послухати. Але вже щось подібне було:
https://toloka.to/t7144
Можливо повтор? Хоча lossless - це в будь-якому разі добре.

StefFanKo 
Новенький


З нами з: 17.09.13
Востаннє: 14.08.17
Повідомлень: 23

2016-12-27 15:12  
Ось сайт де робились записи Романа Кумлика.
http://www.mikolaje.lublin.pl/index.php?strona=dyskografia&jezyk=pl
із всіх перелічених на сайті альбомів(13шт.) нама співпадіння із даним альбомом...
Як буду мати більшу інформацію - все подам та виправлю.

forever_maggot 
VIP


З нами з: 12.06.09
Востаннє: 20.08.17
Повідомлень: 370

2016-12-27 17:00  
Хто буде у Верховині - зайдіть до його дому-музею послухати, як його дочка розповідає про нього й грає на доброму десятку інструментів, бідкаючись, що вона не така багатограйка, як батько.
bohun 
VIP


З нами з: 21.03.09
Востаннє: 20.08.17
Повідомлень: 302

2016-12-27 22:09  
StefFanKo
Ви праві, схоже цього альбому ще немає на Толоці.
PS. Було би дуже непогано, якщо б ви дали список назв треків і скани обкладинки. Тоді б реліз був повним.

Додано через 1 хвилину 8 секунд:

Проситав ваш опис диску Happy Ну ок, треба гуглити обкладинку.

Додано через 20 хвилин 23 секунди:

ось нагуглив

StefFanKo 
Новенький


З нами з: 17.09.13
Востаннє: 14.08.17
Повідомлень: 23

2016-12-27 23:04  
Дуже дякую, bohun! Назви пісень + обкладинка будуть готові!
StefFanKo 
Новенький


З нами з: 17.09.13
Востаннє: 14.08.17
Повідомлень: 23

2016-12-28 11:49  
...Готую збірку "Криворівня Душі", про Параску Плитку-Горицвіт: 1. DVD "Світ Параски-Горицвіт"; 2. CD "Криворівня Душі"; 3. DVD "Коляда для Параски" + книга-буклет. Думаю, вже через кілька днів, на новий рік буде все готово...

Вже готово https://toloka.to/t78658

StefFanKo 
Новенький


З нами з: 17.09.13
Востаннє: 14.08.17
Повідомлень: 23

2016-12-28 15:32  
Прошу перезавантажити дану роздачу альбому. Перезалив даний альбом. Вніс назви пісень у список відтворення та помістив скани обложок

Ваш часовий пояс: GMT + 2 Години

Нова тема   Відповісти