Вам лист / You've Got Mail (1998) 1080p 2xUkr/Eng | Sub Eng

Нові коментарі

Нова тема   Відповісти
Автор Повідомлення
staf777 
Відео Гуртом - підтримка та поширення
Відео Гуртом - підтримка та поширення


З нами з: 16.11.16
Востаннє: 16.08.17
Повідомлень: 522

2016-12-26 21:05  
Вам лист / You've Got Mail (1998) 1080p 2xUkr/Eng | Sub Eng

Вам лист / You've Got Mail (1998) 1080p 2xUkr/Eng | Sub Eng


Жанр: комедія, мелодрама
Країна: США



Кінокомпанія: Warner Bros. Pictures Co.
Режисер: Нора Ефрон
Актори: Том Генкс, Мег Раян, Грег Кіннер, Паркер Поузі та інші

Сюжет:
Головна героїня - власниця маленької книгарні, успадкованої від матері. Її головний ворог - власник мережі книжкових супермаркетів, що побудував свій черговий магазин біля її крамнички. Умови нерівні - величезний магазин може дозволити собі суттєві знижки. Між ними майже війна.

Тим часом кожен з цих двох завів роман в Інтернеті. І найдивовижніше, що одне з одним.


Тривалість: 01:59:24
Якість: 1080p
Відео:
кодек:
розмір кадру: 1920x1080
бітрейт: 15495 кб/с

Аудіо # 1:
мова: українська
переклад: багатоголосий закадровий
кодек: 2.0
бітрейт: 192 кб/с

Аудіо # 2:
мова: українська
переклад: двоголосий закадровий
кодек: 2.0
бітрейт: 192 кб/с

Аудіо # 3:
мова: англійська
переклад: оригінал
кодек: 5.1
бітрейт: 1509 кб/с

Аудіо # 4:
мова: англійська
переклад: коментарі
кодек: 2.0
бітрейт: 192 кб/с

Субтитри:
мова: англійська
тип: програмні (м'які)
формат: *.srt
Info
General
Unique ID : 175521038450008205704432980779141318720 (0x840C1F546E9D4F8F94FFFDC5706A4840)
Complete name : M:\Фільми в HD\Комедія\You've Got Mail (1998) 1080p [Hurtom].
Format :
Format version : Version 4 / Version 2
File size : 14.7 GiB
Duration : 1h 59mn
Overall bit rate : 17.6 Mbps
Movie name : You've Got Mail (1998) 1080p [Hurtom]
Encoded date : UTC 2016-12-27 14:11:15
Writing application : mkvmerge v9.5.0 ('Quiet Fire') 64bit
Writing library : libebml v1.3.4 + libmatroska v1.4.5
Attachements : cover.jpg

Video
ID : 1
Format : AVC
Format/Info : Advanced Video Codec
Format profile : [email protected]
Format settings, CABAC : Yes
Format settings, ReFrames : 4 frames
Codec ID : V_MPEG4/ISO/AVC
Duration : 1h 59mn
Bit rate : 15.5 Mbps
Width : 1 920 pixels
Height : 1 080 pixels
Display aspect ratio : 16:9
Frame rate mode : Constant
Frame rate : 23.976 (24000/1001) fps
Color space : YUV
Chroma subsampling : 4:2:0
Bit depth : 8 bits
Scan type : Progressive
Bits/(Pixel*Frame) : 0.312
Stream size : 12.9 GiB (88%)
Title : You've Got Mail (1998) 1080p
Writing library : core 148 r2692kMod 64f4e24
Encoding settings : cabac=1 / ref=4 / deblock=1:-2:-2 / analyse=0x3:0x133 / me=umh / subme=11 / psy=1 / fade_compensate=0.00 / psy_rd=1.00:0.00 / mixed_ref=1 / me_range=32 / chroma_me=1 / trellis=2 / 8x8dct=1 / cqm=0 / deadzone=21,11 / fast_pskip=0 / chroma_qp_offset=-2 / threads=12 / lookahead_threads=3 / sliced_threads=0 / nr=0 / decimate=1 / interlaced=0 / bluray_compat=0 / constrained_intra=0 / fgo=0 / bframes=10 / b_pyramid=2 / b_adapt=2 / b_bias=0 / direct=3 / weightb=1 / open_gop=0 / weightp=2 / keyint=250 / keyint_min=23 / scenecut=40 / intra_refresh=0 / rc_lookahead=120 / rc=2pass / mbtree=1 / bitrate=15500 / ratetol=1.0 / qcomp=0.80 / qpmin=0 / qpmax=69 / qpstep=4 / cplxblur=20.0 / qblur=0.5 / vbv_maxrate=62500 / vbv_bufsize=78125 / nal_hrd=none / filler=0 / ip_ratio=1.40 / aq=1:0.70
Language : English
Default : Yes
Forced : No
Color range : Limited
Color primaries : BT.709
Transfer characteristics : BT.709
Matrix coefficients : BT.709

Audio #1
ID : 2
Format : AC-3
Format/Info : Audio Coding 3
Mode extension : CM (complete main)
Format settings, Endianness : Big
Codec ID : A_AC3
Duration : 1h 59mn
Bit rate mode : Constant
Bit rate : 192 Kbps
Channel(s) : 2 channels
Channel positions : Front: L R
Sampling rate : 48.0 KHz
Frame rate : 31.250 fps (1536 spf)
Compression mode : Lossy
Stream size : 164 MiB (1%)
Title : Новий канал
Language : Ukrainian
Default : Yes
Forced : Yes

Audio #2
ID : 3
Format : AC-3
Format/Info : Audio Coding 3
Mode extension : CM (complete main)
Format settings, Endianness : Big
Codec ID : A_AC3
Duration : 1h 59mn
Bit rate mode : Constant
Bit rate : 192 Kbps
Channel(s) : 2 channels
Channel positions : Front: L R
Sampling rate : 48.0 KHz
Frame rate : 31.250 fps (1536 spf)
Compression mode : Lossy
Stream size : 164 MiB (1%)
Title : 1+1
Language : Ukrainian
Default : No
Forced : Yes

Audio #3
ID : 4
Format :
Format/Info : Digital Theater Systems
Mode : 16
Format settings, Endianness : Big
Codec ID : A_DTS
Duration : 1h 59mn
Bit rate mode : Constant
Bit rate : 1 509 Kbps
Channel(s) : 6 channels
Channel positions : Front: L C R, Side: L R, LFE
Sampling rate : 48.0 KHz
Frame rate : 93.750 fps (512 spf)
Bit depth : 24 bits
Compression mode : Lossy
Stream size : 1.26 GiB (9%)
Title : Original
Language : English
Default : No
Forced : No

Audio #4
ID : 5
Format : AC-3
Format/Info : Audio Coding 3
Mode extension : CM (complete main)
Format settings, Endianness : Big
Codec ID : A_AC3
Duration : 1h 59mn
Bit rate mode : Constant
Bit rate : 192 Kbps
Channel(s) : 2 channels
Channel positions : Front: L R
Sampling rate : 48.0 KHz
Frame rate : 31.250 fps (1536 spf)
Compression mode : Lossy
Stream size : 164 MiB (1%)
Title : Coomentary by Nora Ephron & Lauren Shuler Donner
Language : English
Default : No
Forced : No

Text
ID : 6
Format : UTF-8
Codec ID : S_TEXT/UTF8
Codec ID/Info : UTF-8 Plain Text
Duration : 1h 59mn
Bit rate : 67 bps
Count of elements : 1807
Stream size : 58.7 KiB (0%)
Language : English
Default : No
Forced : No
Скріншоти



Джерело: &
Подяки за український звук: запис з ТБ - greg_7 (1+1), кіномеханік (Новий); синхронізація - Skiff; українізація постера - Воїн
Особиста оцінка: 0 - не дивився


Срібний реліз (на рейтинг впливає 50% завантаженого)
 Трекер:    Зареєстрований   

Завантажити / скачати фільм українською



відео для новачків



 Зареєстрований:   2016-12-27 18:53
 Розмір:   14.66 GB 
 Оцінка фільму:   9.3/10 (Голосів: 3)
   
Інші релізи
   Вам лист / You've Got Mail (1998) AVC 2xUkr/Eng | Sub Eng mutomba  6 / 0   3.46 GB   2017-03-31 23:07 
   Вам лист / You've Got Mail (1998) 2xUkr/Eng | Sub Eng Skiff  3 / 0   2.5 GB   2011-07-29 21:21 
   Вам лист / You've Got Mail (1998) Ukr/Eng gazzzzzz  1 / 0   2.18 GB   2011-02-17 15:13 
Ваш часовий пояс: GMT + 2 Години

Нова тема   Відповісти