Фрески - Різдвяні мелодії (200?) [FLAC] | Instrumental

Нові коментарі

Нова тема   Відповісти
Автор Повідомлення
StefFanKo 
Новенький


З нами з: 17.09.13
Востаннє: 14.08.17
Повідомлень: 23

2016-12-26 19:48  
Фрески - Різдвяні мелодії (200?) [FLAC] | Instrumental

Фрески - Різдвяні мелодії (200?) [FLAC] | Instrumental


Стиль: Christian Classic
Країна, місто: Україна, Львів
Виконавці:
Лідія Футорська - скрипка
Марта Карапінка - альт
Олена Дражниця - фортепіано
Андрій Дражниця - флейта
Пісні:
    1. Возвеселімся всі разом нині.
    2. Gdy sliczna panna.
    3. Радість нам ся явила.
    4. Lulajze Jezuniu.
    5. В вифлеємі.
    6. По всьому світу.
    7. Hej w dzien narodzenia.
    8. Во вифлеємі.
    9. Pojdzmy wszyscy.
    10. Jezus malusienki.
    11. Дивная новина.

Тривалість: 00:33:41
Мова: українська(віншування)(2), польська(віншування)(11)
Аудіо-кодек: FLAC
Бітрейт: 685 кб/с
Джерело: власний ріп
Додаткова інформація:
image + cue + обкладинки
Мав нагоду придбати даний диск, послухав - сподобалось. Всім святкового настрою! Христос Рождається! - Славімо Його!
Звіт ЕАС про видобування
Exact Audio Copy V1.1 from 23. June 2015

Отчёт EAC об извлечении, выполненном 28. декабря 2016, 12:22

- / ФРЕСКИ - Різдвяні мелодії

Дисковод: ASUS DRW-2014L1T Adapter: 0 ID: 3

Режим чтения : Достоверность
Использование точного потока : Да
Отключение кэша аудио : Да
Использование указателей C2 : Нет

Коррекция смещения при чтении : 6
Способность читать области Lead-in и Lead-out : Нет
Заполнение пропущенных сэмплов тишиной : Да
Удаление блоков с тишиной в начале и конце : Нет
При вычислениях CRC использовались нулевые сэмплы : Да
Интерфейс : Установленный внешний ASPI-интерфейс

Выходной формат : Пользовательский кодировщик
Выбранный битрейт : 1024 kBit/s
Качество : Высокий
Добавление ID3-тега : Нет
Утилита сжатия : C:\Program Files (x86)\Exact Audio Copy\Flac\flac.exe
Дополнительные параметры : -V -8 -T "Date=%year%" -T "Genre=%genre%" %source%

TOC извлечённого CD

Трек | Старт | Длительность | Начальный сектор | Конечный сектор
---------------------------------------------------------------------
1 | 0:00.00 | 3:45.71 | 0 | 16945
2 | 3:45.71 | 4:19.58 | 16946 | 36428
3 | 8:05.54 | 2:43.69 | 36429 | 48722
4 | 10:49.48 | 3:29.70 | 48723 | 64467
5 | 14:19.43 | 3:20.04 | 64468 | 79471
6 | 17:39.47 | 2:01.69 | 79472 | 88615
7 | 19:41.41 | 2:39.70 | 88616 | 100610
8 | 22:21.36 | 2:47.69 | 100611 | 113204
9 | 25:09.30 | 2:39.56 | 113205 | 125185
10 | 27:49.11 | 3:37.69 | 125186 | 141529
11 | 31:27.05 | 2:14.30 | 141530 | 151609

Характеристики диапазона извлечения и сообщения об ошибках

Выбранный диапазон

Имя файла E:\ЕАС роботи\ФРЕСКИ - Різдвяні мелодії.wav

Пиковый уровень 100.0 %
Скорость извлечения 6.9 X
Качество диапазона 100.0 %
CRC копии 2C66371F
Копирование... OK

Ошибок не произошло

Конец отчёта

==== Контрольная сумма отчёта 0FEC4389EF08627E4C4DFCEFD4B1C70CCE7ABFA2DFC549D03DEF09C049D56ABC ====
Якщо Ви справді бажаєте підтримати українське - після прослуховування, якщо музика вам сподобалась, придбайте ліцензійний диск. Підтримаймо вітчизняних виконавців!


Срібний реліз (на рейтинг впливає 50% завантаженого)
 Трекер:    Зареєстрований   

Завантажити / скачати українську музику



відео для новачків



 Зареєстрований:   2016-12-29 15:40
 Розмір:   171 MB 
 Оцінка музики:   8.4/10 (Голосів: 7)
   
StefFanKo 
Новенький


З нами з: 17.09.13
Востаннє: 14.08.17
Повідомлень: 23

2016-12-26 19:55  
Вибачте, це моя перша роздача на толоці - вийшло не з першого разу. Але зі всім розібрався, побачив свою помилку - виправивсяHappy
maxnet 
Частий відвідувач


З нами з: 13.01.10
Востаннє: 03.03.17
Повідомлень: 39

2016-12-27 15:56  
Мнда.....

FILE "CDImage.flac" WAVE
TRACK 01 AUDIO
TITLE ">@>6:0 1"
PERFORMER "58725Ab=K9 8A?>;=8B5;L"
FLAGS DCP
INDEX 01 00:00:00
TRACK 02 AUDIO
TITLE ">@>6:0 2"
PERFORMER "58725Ab=K9 8A?>;=8B5;L"
FLAGS DCP
INDEX 00 03:43:71
INDEX 01 03:45:71

StefFanKo 
Новенький


З нами з: 17.09.13
Востаннє: 14.08.17
Повідомлень: 23

2016-12-27 16:20  
Ви маєте на увазі що немає назви треків на самому диску? ЕАС зробив точну копію, а виправляти не став - залишив як в оригіналі. Ось так...
StefFanKo 
Новенький


З нами з: 17.09.13
Востаннє: 14.08.17
Повідомлень: 23

2016-12-28 12:40  
Прошу перезавантажити дану роздачу альбому. Перезалив даний альбом. Вніс назви пісень у список відтворення.
Ваш часовий пояс: GMT + 2 Години

Нова тема   Відповісти