Українські шерифи (2015) 720p Ukr | Sub Swe

Нові коментарі

Нова тема   Відповісти
Автор Повідомлення
krigg070 
Відео Гуртом - фільмокрай
Відео Гуртом - фільмокрай


З нами з: 29.10.14
Востаннє: 18.08.17
Повідомлень: 734

2016-12-25 15:17  
Українські шерифи (2015) 720p Ukr | Sub Swe


Жанр: документальний
Країна: Україна, Латвія, Німеччина



Телеканал / кіностудія: VFS Films, SOUTH, Taskovski Films
Режисер: Роман Бондарчук
Актори: Віктор Кривобородько, Володимир Рудьковський та інші

Сюжет:
Через те, що в селі Стара Збур'ївка практично немає міліції, функцію охорони громадського порядку беруть на себе двоє місцевих жителів — 50-річний Віктор Кривобородько і 44-річний Володимир Рудьковський.
Віктор і Володя суміщають обов'язки міліціонерів і соціальних працівників: вгамовують сімейні сварки, присікають бійки між сусідами, шукають потопельників тощо — тобто займаються усім, окрім кримінальних злочинів. Однак після того, як починається війна, настрій у жителів села змінюється.

Тривалість: 01:24:46
Якість: 720p
Відео:
кодек:
розмір кадру: 1280 х 720
бітрейт: 2 700 кб/с

Аудіо:
мова: суржик, українська, російська
переклад: оригінал
кодек: 2.0
бітрейт: 96 кб/с

Субтитри:
мова: шведська
тип: вбудовані (жорсткі)
Скріншоти
Info
Код:
Video
ID                             : 1
Format                         : AVC
Format/Info                    : Advanced Video Codec
Format profile                 : [email protected]
Format settings, CABAC         : Yes
Format settings, ReFrames      : 4 frames
Format settings, GOP           : M=2, N=50
Codec ID                       : avc1
Codec ID/Info                  : Advanced Video Coding
Duration                       : 1h 24mn
Bit rate mode                  : Constant
Bit rate                       : 2 700 Kbps
Width                          : 1 280 pixels
Height                         : 720 pixels
Display aspect ratio           : 16:9
Frame rate mode                : Constant
Frame rate                     : 25.000 fps
Color space                    : YUV
Chroma subsampling             : 4:2:0
Bit depth                      : 8 bits
Scan type                      : Progressive
Bits/(Pixel*Frame)             : 0.117
Stream size                    : 1.60 GiB (96%)
Color range                    : Limited
Color primaries                : BT.709
Transfer characteristics       : BT.709
Matrix coefficients            : BT.709

Audio
ID                             : 2
Format                         :
Format/Info                    : Advanced Audio Codec
Format profile                 : HE- / LC
Codec ID                       : 40
Duration                       : 1h 24mn
Bit rate mode                  : Variable
Bit rate                       : 96.0 Kbps
Maximum bit rate               : 98.4 Kbps
Channel(s)                     : 2 channels
Channel positions              : Front: L R
Sampling rate                  : 48.0 KHz / 24.0 KHz
Frame rate                     : 23.438 fps (1024 spf)
Compression mode               : Lossy
Stream size                    : 57.4 MiB (3%)
Default                        : Yes
Alternate group                : 1
Джерело:


Золотий реліз (завантажене не впливає на рейтинг)
 Трекер:    Зареєстрований   

Завантажити / скачати фільм українською



відео для новачків



 Зареєстрований:   2016-12-25 15:17
 Розмір:   1.66 GB 
 Оцінка фільму:   9.6/10 (Голосів: 20)
   
bot 
робот


З нами з: 30.09.07
Востаннє: 26.05.05
Повідомлень: 17363

2016-12-25 15:22  
respect14 
VIP


З нами з: 26.01.11
Востаннє: 18.08.17
Повідомлень: 485

2016-12-25 16:50  
Чому немає золота? І чи буде без шведських субтитрів?
Patriot_ukr 
VIP


З нами з: 06.04.15
Востаннє: 17.08.17
Повідомлень: 1758

2016-12-25 18:28  
respect14 написано:
немає золота

Тому що реліз ще не перевірено.
respect14 написано:
без шведських субтитрів

Це відомо лише Богу (і кіностудіям). Автор релізу також не знає.

Форкуш 
VIP


З нами з: 03.02.10
Востаннє: 18.08.17
Повідомлень: 1829

2016-12-26 09:27  
нт, випередили мене, я його в заначці тримав-тримав і дотримався((
яфіук56н 
VIP


З нами з: 15.11.12
Востаннє: 17.08.17
Повідомлень: 342

2017-02-14 01:38  
10/10
bot 
робот


З нами з: 30.09.07
Востаннє: 26.05.05
Повідомлень: 17363

2017-02-26 11:15  
Zawoolon 
Новенький


З нами з: 04.12.16
Востаннє: 30.07.17
Повідомлень: 2

2017-02-26 18:16  
супер!!!
Ваш часовий пояс: GMT + 2 Години

Нова тема   Відповісти