Добрий динозавр / The Good Dinosaur (2015) Remux 1080p Ukr/Eng | Sub Eng

Нові коментарі

Нова тема   Відповісти
Автор Повідомлення
staf777 
Відео Гуртом - підтримка та поширення
Відео Гуртом - підтримка та поширення


З нами з: 16.11.16
Востаннє: 16.08.17
Повідомлень: 522

2016-12-24 15:41  
Добрий динозавр / The Good Dinosaur (2015) Remux 1080p Ukr/Eng Sub Eng

Добрий динозавр / The Good Dinosaur (2015) Remux 1080p Ukr/Eng | Sub Eng
Інші постери та оригінальна обкладинка









Жанр: анімація, комедія, пригоди, сімейний
Країна: США



Кінокомпанія: Walt Disney Pictures, Pixar Animation Studios
Режисер: Пітер Сон
Актори: Джеффрі Райт, Маркус Скрібнер, Реймонд Очоа, Джек Брайт, Пітер Сон, Стів Зан, Сем Елліотт та інші

Сюжет:
Тільки уявіть, як виглядала б наша планета, якби астероїд, що знищив динозаврів, пролетів повз? Вони б не вимерли і жили серед нас зараз. Апатозавр по імені Арло незграбний і боязкий, але має велике добре серце. Він заводить незвичайного друга - людську дитину, яку звуть Спот. Хлопчик дикуватий, але дуже розумний. І хоча ця дивна парочка не відразу стає товаришами, вони допомагають один одному. Під час подорожі по суворих і загадкових місцях, Арло вчиться протистояти своїм страхам і дізнається, на що він дійсно здатний. Спот і динозавр зустрінуться із різними тваринами на своєму шляху, але не всі будуть до них доброзичливі.
Чи знаєте ви, що...


• Працюючи над сімейством тиранозаврів, художники черпали натхнення в родині фермерів з північно-західного тихоокеанського узбережжя США. Кінематографісти натрапили на будинок цієї родини під час дослідного турне і були зачаровані їх зовнішністю і ставленням до життя.
• Для того, щоб місцевість у фільмі виглядала реалістично, команда художників і технічних фахівців Pixar детально вивчала Дикий Захід Америки, починаючи з міста Джунтура (штат Орегон) і аж до долини Джексон Хоул (штат Вайомінг). Саме в тій місцевості, якщо вірити сценаристам, заблукав Арло.
• Щоб поринути в безодню незайманої природи був організований дослідницький кінний похід в Вайомінг. Дорога кінематографістів проходила вздовж гірського хребта Тетон і річки Снейк. Дослідницька експедиція дійшла до Південної Монтани, випробувавши на собі непрості кліматичні умови. Щоб перенести всі побачені в ході експедиції краси на екран, кінематографісти звернулися до технічних фахівців Pixar, оскільки потрібно було обробити величезний масив інформації. Дані по Вайомингу знайшли в Інтернеті. З іншими територіями творцям фільму допомогло Американське Геологічне Управління, фахівці якого надали вичерпні ландшафтні дані по всім Сполученим Штатам. Більша частина інформації була представлена в якості аерофотографій. Інформація про висоти точок рельєфу місцевості стала відправною точкою в подальших дослідженнях і розробці системи генерування комп'ютерного ландшафту.
• При створенні місцевості використовувалися фотографії з супутників. Був написаний спеціальний плагін для програми, який вказував, що будь-зелена пляма на карті – це дерева та інші зелені насадження. За тією ж аналогією наносилися на карту та інші типи місцевості: коричневий – земля і бруд, синій – водойма або річка.
• Під час дослідницької експедиції по Вайомінгу кінематографісти зважилися сплавитися по річці Снейк. Подорож знімалося на камеру GoPro. У якийсь момент кріплення камери ослаб, і вона впала в річку. На щастя, досвідчений гід, який знав річку, зумів розрахувати, куди приблизно потік винесе цінну апаратуру. Камеру знайшли, при цьому вона продовжувала працювати. Знімальна група отримала безцінний матеріал, на якому був зображений весь заплив від початку і до кінця, в тому числі – і підводні зйомки.
• Готуючись до зйомок фільму, художники і техніки з Disney/Pixar створили цілу бібліотеку різних дощових і хмарних ефектів, які могли видозмінюватися і комбінуватися один з одним для отримання оригінальних комбінацій. Зазвичай хмари малюються двомірними, в цьому ж фільмі, вперше в історії мультиплікації, вони були зроблені стовідсотково об'ємними. Вони рухливі і можуть висвітлюватися з будь-якого ракурсу, створюючи дуже реалістичну хмарність.
• Працюючи над зовнішністю і поведінкою Бура (величезний тиранозавр, якого зустрічає Арло по дорозі додому), кінематографісти орієнтувалися на акторів, які гармонійно виглядали в образах класичних ковбоїв, таких як Клінт Іствуд і Джек Пеланс.
Тривалість: 01:33:39
Якість: Remux 1080p
Відео:
кодек:
розмір кадру: 1920x1080
бітрейт: 23,8 Mб/с

Аудіо # 1:
мова: українська
переклад: професійний дубльований
кодек: -HD MA 5.1
бітрейт: 3840 кб/с

Аудіо # 2:
мова: англійська
переклад: оригінал
кодек: -HD MA 7.1
бітрейт: 3344 кб/с

Аудіо # 3:
мова: англійська
переклад: коментарі
кодек: 2.0
бітрейт: 320 кб/с

Аудіо # 4:
мова: англійська
переклад: коментарі
кодек: 2.0
бітрейт: 320 кб/с

Субтитри # 1-2:
мова: англійська (повні, SDH)
тип: пререндерні
формат: PGS
Info
General
Unique ID : 207270894333392285284261971109075259089 (0x9BEEEC1546E54DA7A3BEEF8C4CE88ED1)
Complete name : J:\» HD українською » Мультфільми в HD\The Good Dinosaur (2015) Remux 1080p [Hurtom].
Format :
Format version : Version 4 / Version 2
File size : 20.8 GiB
Duration : 1h 33mn
Overall bit rate mode : Variable
Overall bit rate : 31.7 Mbps
Movie name : The Good Dinosaur (2015) Remux 1080p [Hurtom]
Encoded date : UTC 2016-12-24 15:19:40
Writing application : mkvmerge v9.5.0 ('Quiet Fire') 64bit
Writing library : libebml v1.3.4 + libmatroska v1.4.5
Attachements : cover.jpg..jpg

Video
ID : 1
Format : AVC
Format/Info : Advanced Video Codec
Format profile : [email protected]
Format settings, CABAC : Yes
Format settings, ReFrames : 4 frames
Format settings, GOP : M=1, N=12
Codec ID : V_MPEG4/ISO/AVC
Duration : 1h 33mn
Bit rate mode : Variable
Bit rate : 23.8 Mbps
Maximum bit rate : 32.0 Mbps
Width : 1 920 pixels
Height : 1 080 pixels
Display aspect ratio : 16:9
Frame rate mode : Constant
Frame rate : 23.976 (24000/1001) fps
Color space : YUV
Chroma subsampling : 4:2:0
Bit depth : 8 bits
Scan type : Progressive
Bits/(Pixel*Frame) : 0.479
Stream size : 15.6 GiB (75%)
Title : The Good Dinosaur (2015) Remux 1080p
Default : Yes
Forced : No

Audio #1
ID : 2
Format :
Format/Info : Digital Theater Systems
Format profile : MA / Core
Mode : 16
Format settings, Endianness : Big
Codec ID : A_DTS
Duration : 1h 33mn
Bit rate mode : Variable / Constant
Bit rate : 3 840 Kbps / 1 509 Kbps
Channel(s) : 6 channels
Channel positions : Front: L C R, Side: L R, LFE
Sampling rate : 48.0 KHz
Frame rate : 93.750 fps (512 spf)
Bit depth : 24 bits
Compression mode : Lossless / Lossy
Delay relative to video : 861ms
Stream size : 2.50 GiB (12%)
Title : Aудио#2: Ukrainian: 48 kHz/24-bit, -HD MA 5.1, ~3816.00 kbps avg
Language : Ukrainian
Default : Yes
Forced : Yes

Audio #2
ID : 3
Format :
Format/Info : Digital Theater Systems
Format profile : MA / Core
Mode : 16
Format settings, Endianness : Big
Codec ID : A_DTS
Duration : 1h 33mn
Bit rate mode : Variable / Constant
Bit rate : 3 344 Kbps / 1 509 Kbps
Channel(s) : 8 channels / 6 channels
Channel positions : Front: L C R, Side: L R, Back: L R, LFE / Front: L C R, Side: L R, LFE
Sampling rate : 48.0 KHz
Frame rate : 93.750 fps (512 spf)
Bit depth : 24 bits
Compression mode : Lossless / Lossy
Stream size : 2.19 GiB (11%)
Title : English: 48 kHz/24-bit, -HD MA 7.1, ~3344.00 kbps avg
Language : English
Default : No
Forced : No

Audio #3
ID : 4
Format : AC-3
Format/Info : Audio Coding 3
Format profile : Dolby Digital
Mode extension : CM (complete main)
Format settings, Endianness : Big
Codec ID : A_AC3
Duration : 1h 33mn
Bit rate mode : Constant
Bit rate : 320 Kbps
Channel(s) : 2 channels
Channel positions : Front: L R
Sampling rate : 48.0 KHz
Frame rate : 31.250 fps (1536 spf)
Compression mode : Lossy
Stream size : 215 MiB (1%)
Title : Commentary
Language : English
Default : No
Forced : No

Audio #4
ID : 5
Format : AC-3
Format/Info : Audio Coding 3
Mode extension : CM (complete main)
Format settings, Endianness : Big
Codec ID : A_AC3
Duration : 1h 33mn
Bit rate mode : Constant
Bit rate : 320 Kbps
Channel(s) : 2 channels
Channel positions : Front: L R
Sampling rate : 48.0 KHz
Frame rate : 31.250 fps (1536 spf)
Compression mode : Lossy
Stream size : 215 MiB (1%)
Title : Commentary
Language : English
Default : No
Forced : No

Text #1
ID : 6
Format : PGS
Muxing mode : zlib
Codec ID : S_HDMV/PGS
Codec ID/Info : Picture based subtitle format used on BDs/HD-DVDs
Duration : 1h 33mn
Bit rate : 6 838 bps
Count of elements : 1780
Stream size : 4.57 MiB (0%)
Language : English
Default : Yes
Forced : No

Text #2
ID : 7
Format : PGS
Muxing mode : zlib
Codec ID : S_HDMV/PGS
Codec ID/Info : Picture based subtitle format used on BDs/HD-DVDs
Duration : 1h 33mn
Bit rate : 22.2 Kbps
Count of elements : 3708
Stream size : 14.8 MiB (0%)
Language : English
Default : No
Forced : No
Скріншоти



Джерело: &
Особиста оцінка: 10 - без зайвих вагань рекомендую всім!


Золотий реліз (завантажене не впливає на рейтинг)
 Трекер:    Зареєстрований   

Завантажити / скачати мультфільм українською



відео для новачків



 Зареєстрований:   2016-12-24 20:00
 Розмір:   20.75 GB 
 Оцінка мультфільму:   8.9/10 (Голосів: 8)
   
Ваш часовий пояс: GMT + 2 Години

Нова тема   Відповісти