Бог не помер 2 / God's Not Dead 2 (2016) 1080p Ukr/Eng | sub Eng

Нові коментарі

Нова тема   Відповісти
Автор Повідомлення
coldice 
Свій


З нами з: 20.03.10
Востаннє: 07.12.17
Повідомлень: 138

2016-12-24 13:21  
Бог не помер 2 / God's Not Dead 2 (2016) 1080p Ukr/Eng | sub Eng

Бог не помер 2 / God's Not Dead 2 (2016) 1080p Ukr/Eng | sub Eng


Жанр: драма
Країна: США



Кінокомпанія: Pure Flix Entertainment
Режисер: Харольд Кронк / Harold Cronk
Актори: Мелісса Джоан Гарт / Melissa Joan Hart, Джессі Меткалф / Jesse Metcalfe, Девід Е.Р. Уайт / David A. R. White, Гейлі Орранція / Hayley Orrantia, Саді Робертсон / Sadie Robertson, Ерні Гадсон / Ernie Hudson, гурт Newsboys

Сюжет:
Звичайна шкільна вчителька історії Грейс Веслі (Мелісса Джоан Гарт) любить свою роботу та якісно виконує її - готується до кожного уроку, намагається передати дітям потрібні знання. Та одного разу під час уроку, присвяченого ідеям ненасильницького спротиву, одна з учениць задає їй питання - про вчення Ісуса Христа. І поки Грейс відповідає на запитання, цитуючи Євангеліє, один з учнів записує її слова та поширює у соцмережах. Це стає приводом для конфлікту, під час якого Грейс повстає перед вибором: визнати свій вчинок за помилку чи відстоювати свої переконання, ризикуючи назавжди втратити можливість учителювати.
Трейлер


Перекладено та озвучено студією "Омікрон" на замовлення молодіжного сайту DyvenSvit.org

Попередня частина: Бог не помер / God's Not Dead (2014)


Тривалість: 02:00:51
Якість:
Відео:
кодек:
розмір кадру: 1920 х 800
бітрейт: 8849 кб/с

Аудіо # 1:
мова: українська | студія Омікрон
переклад: багатоголосий закадровий
кодек: 5.1
бітрейт: 640 кб/с

Аудіо # 2:
мова: англійська
переклад: оригінал
кодек: 5.1
бітрейт: 640 кб/с

Субтитри:
мова: англійська
тип: програмні (м'які)
Скріншоти






Info

General
Unique ID : 230280640476745944070728431010866255733 (0xAD3E702805923FBB8F7EBCA2BA67D775)
Complete name : D:\torrents\films\Gods.Not.Dead.2.2016..1080p..Omikron.
Format :
Format version : Version 4 / Version 2
File size : 8.55 GiB
Duration : 2h 0mn
Overall bit rate : 10.1 Mbps
Movie name : RARBG.COM - Gods.Not.Dead.2.2016.1080p.BluRay..-HD.MA.5.1-RARBG
Encoded date : UTC 2016-12-24 16:32:44
Writing application : mkvmerge v9.6.0 ('Slave To Your Mind') 64bit
Writing library : libebml v1.3.4 + libmatroska v1.4.5
Cover : Yes
Attachments : small_cover.jpg / small_cover_land.jpg / cover.jpg / cover_land.jpg

Video
ID : 1
Format : AVC
Format/Info : Advanced Video Codec
Format profile : [email protected]
Format settings, CABAC : Yes
Format settings, ReFrames : 5 frames
Codec ID : V_MPEG4/ISO/AVC
Duration : 2h 0mn
Bit rate : 8 849 Kbps
Width : 1 920 pixels
Height : 800 pixels
Display aspect ratio : 2.40:1
Frame rate mode : Constant
Frame rate : 23.976 fps
Color space : YUV
Chroma subsampling : 4:2:0
Bit depth : 8 bits
Scan type : Progressive
Bits/(Pixel*Frame) : 0.240
Stream size : 7.47 GiB (87%)
Title : Gods.Not.Dead.2.2016.1080p.BluRay..-HD.MA.5.1-RARBG
Writing library : core 148 r2692 64f4e24
Encoding settings : cabac=1 / ref=5 / deblock=1:0:0 / analyse=0x3:0x133 / me=umh / subme=7 / psy=1 / psy_rd=1.00:0.00 / mixed_ref=1 / me_range=16 / chroma_me=1 / trellis=1 / 8x8dct=1 / cqm=0 / deadzone=21,11 / fast_pskip=0 / chroma_qp_offset=-2 / threads=18 / lookahead_threads=3 / sliced_threads=0 / nr=0 / decimate=1 / interlaced=0 / bluray_compat=0 / constrained_intra=0 / bframes=3 / b_pyramid=2 / b_adapt=1 / b_bias=0 / direct=1 / weightb=1 / open_gop=0 / weightp=2 / keyint=250 / keyint_min=23 / scenecut=40 / intra_refresh=0 / rc_lookahead=40 / rc=2pass / mbtree=1 / bitrate=8849 / ratetol=1.0 / qcomp=0.60 / qpmin=0 / qpmax=69 / qpstep=4 / cplxblur=20.0 / qblur=0.5 / ip_ratio=1.40 / aq=1:1.00
Language : English
Default : Yes
Forced : No

Audio #1
ID : 2
Format : AC-3
Format/Info : Audio Coding 3
Mode extension : CM (complete main)
Format settings, Endianness : Big
Codec ID : A_AC3
Duration : 2h 0mn
Bit rate mode : Constant
Bit rate : 640 Kbps
Channel(s) : 6 channels
Channel positions : Front: L C R, Side: L R, LFE
Sampling rate : 48.0 KHz
Frame rate : 31.250 fps (1536 spf)
Compression mode : Lossy
Stream size : 553 MiB (6%)
Title : Ukrainian 5.1 @ 640 KBps
Language : Ukrainian
Default : Yes
Forced : Yes

Audio #2
ID : 3
Format : AC-3
Format/Info : Audio Coding 3
Mode extension : CM (complete main)
Format settings, Endianness : Big
Codec ID : A_AC3
Duration : 2h 0mn
Bit rate mode : Constant
Bit rate : 640 Kbps
Channel(s) : 6 channels
Channel positions : Front: L C R, Side: L R, LFE
Sampling rate : 48.0 KHz
Frame rate : 31.250 fps (1536 spf)
Compression mode : Lossy
Stream size : 553 MiB (6%)
Title : English 5.1 @ 640 KBps
Language : English
Default : No
Forced : No

Text #1
ID : 4
Format : UTF-8
Codec ID : S_TEXT/UTF8
Codec ID/Info : UTF-8 Plain Text
Duration : 1h 59mn
Bit rate : 78 bps
Count of elements : 1926
Stream size : 69.1 KiB (0%)
Title : English
Language : English
Default : No
Forced : No

Text #2
ID : 5
Format : UTF-8
Codec ID : S_TEXT/UTF8
Codec ID/Info : UTF-8 Plain Text
Duration : 1h 59mn
Bit rate : 83 bps
Count of elements : 2003
Stream size : 72.9 KiB (0%)
Title : English SDH
Language : English
Default : No
Forced : No

Menu
00:00:00.000 : en:00:00:00.000
00:03:39.177 : en:00:03:39.177
00:08:31.636 : en:00:08:31.636
00:14:34.832 : en:00:14:34.832
00:20:13.212 : en:00:20:13.212
00:29:15.295 : en:00:29:15.295
00:37:55.148 : en:00:37:55.148
00:44:39.802 : en:00:44:39.802
00:51:00.224 : en:00:51:00.224
00:56:07.364 : en:00:56:07.364
01:00:52.566 : en:01:00:52.566
01:05:42.355 : en:01:05:42.355
01:09:55.400 : en:01:09:55.400
01:14:03.147 : en:01:14:03.147
01:17:57.965 : en:01:17:57.965
01:23:51.068 : en:01:23:51.068
01:31:53.341 : en:01:31:53.341
01:38:58.766 : en:01:38:58.766
01:47:13.177 : en:01:47:13.177
01:55:07.984 : en:01:55:07.984
Джерело: студія Омікрон
Особиста оцінка: 10 - без зайвих вагань рекомендую всім!


Авторський реліз (завантажувати можна без реєстрації)
 Трекер:    Зареєстрований   

Завантажити / скачати фільм українською



відео для новачків



 Зареєстрований:   2016-12-24 18:38
 Розмір:   8.55 GB 
 Оцінка фільму:   7.5/10 (Голосів: 18)
   
Інші релізи
10alexs 
VIP


З нами з: 26.02.09
Востаннє: 10.12.17
Повідомлень: 310

2016-12-24 19:52  
Скільки богів ще не померло?
oster_ok 
Відео Гуртом - підтримка та поширення
Відео Гуртом - підтримка та поширення


З нами з: 20.11.11
Востаннє: 10.12.17
Повідомлень: 84

2016-12-27 21:01  
чи є український постер в хорошій якості ?
coldice 
Свій


З нами з: 20.03.10
Востаннє: 07.12.17
Повідомлень: 138

2016-12-29 15:12  
oster_ok
На жаль нема, адже фільм не був у прокаті в Україні

zdlr 
Частий відвідувач


З нами з: 07.12.12
Востаннє: 09.12.17
Повідомлень: 36

2017-01-08 17:20  
Фільм не для всіх, але не поганий.
uaxpasha 
Поважний учасник


З нами з: 05.08.12
Востаннє: 10.12.17
Повідомлень: 168

2017-01-09 15:46  
4.1 На IMDB? Ні, дякую, обйдусь
Скільки фільмів на укр. нема, а тим паче серіалів хороших, а перекладають шось... таке. Ну ок

shalaiko 
Новенький


З нами з: 20.01.11
Востаннє: 10.12.17
Повідомлень: 3

2017-01-13 21:08  
Сказано ж що не для "срєдніх" умов
Dimon_GIN 
Новенький


З нами з: 22.12.16
Востаннє: 10.12.17
Повідомлень: 17

2017-01-19 04:15  
Дивно, що тут сpач про релігію, атеїзм та інше не розвели... :-D
famous37 
Відео Гуртом - фільмокрай
Відео Гуртом - фільмокрай


З нами з: 16.11.08
Востаннє: 11.12.17
Повідомлень: 781

2017-01-21 09:46  
Dimon_GIN написано:
Дивно, що тут сpач про релігію, атеїзм та інше не розвели... :-D

Поки що тут https://toloka.to/t78476

Patriot_ukr 
VIP


З нами з: 06.04.15
Востаннє: 10.12.17
Повідомлень: 1922

2017-02-05 18:01  
Той випадок, коли рейтинґ абсолютно відповідає якості фільму.
Alex_Shumway 
Новенький


З нами з: 10.07.16
Востаннє: 10.12.17
Повідомлень: 19

2017-03-20 23:44  
Відповім майже тим же коментарем, що і до першої частини)

На мою думку, друга частина програє першій.
Декілька суб"єктивних... скажімо, порад:
1) якщо ви віруючий - вам фільм сподобається;
2) якщо ви атеіст - абстрагуйтесь від акцентування в фільмі на християнство, і він вам теж може сподобатись (але тут більше "шуму", ніж в першій частині);
3) якщо ви "анти-теіст" - вас фільм вибісить.

PS: Себе відношу до другої групи, нічиї почуття не мав наміру образити))

OlehH2012 
Новенький


З нами з: 07.09.12
Востаннє: 07.12.17
Повідомлень: 15

2017-06-27 17:34  
Дуже дякую! Ще одне підтвердження того , що віра переможе все.
Ваш часовий пояс: GMT + 2 Години

Нова тема   Відповісти