Цвинтар домашніх тварин. Дилогія / Pet Sematary. Dilogy (1989, 1992) AVC/AVC Ukr/Eng | Sub Eng

Нові коментарі

Нова тема   Відповісти
Автор Повідомлення
krigg070 
Відео Гуртом - фільмокрай
Відео Гуртом - фільмокрай


З нами з: 29.10.14
Востаннє: 18.08.17
Повідомлень: 734

2016-12-24 10:53  
Цвинтар домашніх тварин. Дилогія / Pet Sematary. Dilogy (1989, 1992) AVC/AVC Ukr/Eng | Sub Eng

Цвинтар домашніх тварин / Pet Sematary (1989) AVC Ukr/Eng | Sub Eng
Цвинтар домашніх тварин / Pet Sematary (1989) AVC Ukr/Eng | Sub Eng


Жанр: жахи, трилер, фентезі
Країна: США



Кінокомпанія: Paramount Pictures, Laurel Productions
Режисер: Мері Ламберт
Актори: Дейл Мідкіф, Фред Гуін, Деніз Кросбі, Бред Грінквіст , Майкл Ломбард , Міко Хьюз , Блейз Бердаль , Сьюзен Бломмаєрт , Тара Кларк , Мері Луїз Уїлсон

Сюжет:
Доктор Луїс Крід переїжджає до маленького містечка, де на його сім'ю чекає великий будинок, а самого Луїса - скромна посада лікаря місцевого коледжу. Нове, просторе помешкання подружжя Крід розташоване на краю густого, величного лісу. А у самому лісі - маленьке й похмуре кладовище, де місцеві жителі ховають своїх домашніх тварин.

Тривалість: 01:42:45
Якість: AVC (Deep Fusion)
Відео:
кодек:
розмір кадру: 1024 х 576
бітрейт: 3 218 кб/с

Аудіо # 1:
мова: українська
переклад: багатоголосий закадровий
кодек: 2.0
бітрейт: 192 кб/с

Аудіо # 2:
мова: англійська
переклад: оригінал
кодек: 5.1
бітрейт: 448 кб/с

Субтитри:
мова: англійська
тип: програмні (м'які)
формат: *.srt
Скріншоти
Info
Код:
Video
ID                             : 1
Format                         : AVC
Format/Info                    : Advanced Video Codec
Format profile                 : [email protected]
Format settings, CABAC         : Yes
Format settings, ReFrames      : 12 frames
Codec ID                       : V_MPEG4/ISO/AVC
Duration                       : 1h 42mn
Bit rate                       : 3 218 Kbps
Width                          : 1 024 pixels
Height                         : 576 pixels
Display aspect ratio           : 16:9
Frame rate mode                : Constant
Frame rate                     : 23.976 (24000/1001) fps
Color space                    : YUV
Chroma subsampling             : 4:2:0
Bit depth                      : 8 bits
Scan type                      : Progressive
Bits/(Pixel*Frame)             : 0.228
Stream size                    : 2.31 GiB (83%)
Writing library                : core 129 r2230 1cffe9f
Encoding settings              : cabac=1 / ref=12 / deblock=1:-3:-2 / analyse=0x3:0x113 / me=umh / subme=11 / psy=1 / psy_rd=1.09:0.04 / mixed_ref=1 / me_range=64 / chroma_me=1 / trellis=2 / 8x8dct=1 / cqm=0 / deadzone=21,11 / fast_pskip=0 / chroma_qp_offset=-5 / threads=6 / lookahead_threads=1 / sliced_threads=0 / nr=0 / decimate=1 / interlaced=0 / bluray_compat=0 / constrained_intra=0 / bframes=11 / b_pyramid=2 / b_adapt=2 / b_bias=0 / direct=1 / weightb=1 / open_gop=0 / weightp=2 / keyint=230 / keyint_min=23 / scenecut=40 / intra_refresh=0 / rc_lookahead=60 / rc=2pass / mbtree=0 / bitrate=3218 / ratetol=1.0 / qcomp=0.60 / qpmin=10 / qpmax=69 / qpstep=4 / cplxblur=20.0 / qblur=0.5 / vbv_maxrate=62500 / vbv_bufsize=50000 / nal_hrd=none / ip_ratio=1.40 / pb_ratio=1.30 / aq=1:0.70
Language                       : English
Default                        : Yes
Forced                         : No

Audio #1
ID                             : 2
Format                         : AC-3
Format/Info                    : Audio Coding 3
Mode extension                 : CM (complete main)
Format settings, Endianness    : Big
Codec ID                       : A_AC3
Duration                       : 1h 42mn
Bit rate mode                  : Constant
Bit rate                       : 192 Kbps
Channel(s)                     : 2 channels
Channel positions              : Front: L R
Sampling rate                  : 48.0 KHz
Frame rate                     : 31.250 fps (1536 spf)
Compression mode               : Lossy
Stream size                    : 141 MiB (5%)
Title                          : 2.0 @ 192 kbps - К1
Language                       : Ukrainian
Default                        : Yes
Forced                         : No

Audio #2
ID                             : 3
Format                         : AC-3
Format/Info                    : Audio Coding 3
Mode extension                 : CM (complete main)
Format settings, Endianness    : Big
Codec ID                       : A_AC3
Duration                       : 1h 42mn
Bit rate mode                  : Constant
Bit rate                       : 448 Kbps
Channel(s)                     : 6 channels
Channel positions              : Front: L C R, Side: L R, LFE
Sampling rate                  : 48.0 KHz
Frame rate                     : 31.250 fps (1536 spf)
Compression mode               : Lossy
Stream size                    : 329 MiB (12%)
Title                          : 5.1 @ 448 kbps - Original
Language                       : English
Default                        : No
Forced                         : No

Text
ID                             : 4
Format                         : UTF-8
Codec ID                       : S_TEXT/UTF8
Codec ID/Info                  : UTF-8 Plain Text
Duration                       : 1h 38mn
Bit rate                       : 33 bps
Count of elements              : 771
Stream size                    : 24.5 KiB (0%)
Title                          : Full
Language                       : English
Default                        : No
Forced                         : No

Menu
00:00:00.000                   : en:Chapter 01
00:03:04.183                   : en:Chapter 02
00:09:57.887                   : en:Chapter 03
00:17:25.127                   : en:Chapter 04
00:25:07.255                   : en:Chapter 05
00:33:45.940                   : en:Chapter 06
00:40:50.531                   : en:Chapter 07
00:44:18.697                   : en:Chapter 08
00:47:38.522                   : en:Chapter 09
00:53:32.542                   : en:Chapter 10
01:00:08.938                   : en:Chapter 11
01:09:11.939                   : en:Chapter 12
01:16:45.100                   : en:Chapter 13
01:21:37.975                   : en:Chapter 14
01:26:33.062                   : en:Chapter 15
01:28:28.469                   : en:Chapter 16
01:30:20.247                   : en:Chapter 17
01:35:37.898                   : en:Chapter 18
01:39:35.594                   : en:Chapter 19
Джерело: &
Цвинтар домашніх тварин II / Pet Sematary II (1992) AVC Ukr/Eng | Sub Eng
Цвинтар домашніх тварин II / Pet Sematary II (1992) AVC Ukr/Eng | Sub Eng


Жанр: жахи, трилер, фентезі
Країна: США



Кінокомпанія: Paramount Pictures, Columbus Circle Films
Режисер: Мері Ламберт
Актори: Кленсі Браун, Ентоні Едвардс, Едвард Ферлонґ та інші

Сюжет:
Після смерті дружини ветеринар Чейз Метьюз і його тринадцятирічний син Джеф вирішують почати нове життя. Батько і син переїжджають в глухе містечко Ладлоу. Тут Джефф знайомиться з підлітком на ім'я Дрю. Як з'ясувалося, новому приятелеві Джеффа живеться несолодко. Над Дрю постійно знущається його вітчим - місцевий шериф Гас Гілберт. Одного разу, коли жорстокість вітчима перейшла всі межі, він холоднокровно пристрелив улюбленого собаку Дрю. Тепер хлопчикам належить поховати пса. І вони вирішують зробити це на старому індіанському кладовищі, про яке ходять страшні легенди. Розповідають, що якщо закопати на ньому мерця, то через деякий час він обов'язково повернеться...

Тривалість: 01:40:26
Якість: AVC
Відео:
кодек:
розмір кадру: 1024 х 576
бітрейт: 3 499 кб/с

Аудіо # 1:
мова: українська
переклад: багатоголосий закадровий
кодек: 2.0
бітрейт: 192 кб/с

Аудіо # 2:
мова: англійська
переклад: оригінал
кодек: 5.1
бітрейт: 448 кб/с

Субтитри:
мова: англійська
тип: програмні (м'які)
формат: *.srt
Скріншоти
Info
Код:
Video
ID                             : 1
Format                         : AVC
Format/Info                    : Advanced Video Codec
Format profile                 : [email protected]
Format settings, CABAC         : Yes
Format settings, ReFrames      : 9 frames
Codec ID                       : V_MPEG4/ISO/AVC
Duration                       : 1h 40mn
Bit rate                       : 3 499 Kbps
Width                          : 1 024 pixels
Height                         : 576 pixels
Display aspect ratio           : 16:9
Frame rate mode                : Constant
Frame rate                     : 23.976 (24000/1001) fps
Color space                    : YUV
Chroma subsampling             : 4:2:0
Bit depth                      : 8 bits
Scan type                      : Progressive
Bits/(Pixel*Frame)             : 0.247
Stream size                    : 2.45 GiB (84%)
Writing library                : core 142 r2431 ac76440
Encoding settings              : cabac=1 / ref=9 / deblock=1:-1:-1 / analyse=0x3:0x133 / me=umh / subme=10 / psy=1 / psy_rd=1.00:0.00 / mixed_ref=1 / me_range=32 / chroma_me=1 / trellis=2 / 8x8dct=1 / cqm=0 / deadzone=21,11 / fast_pskip=1 / chroma_qp_offset=-2 / threads=12 / lookahead_threads=2 / sliced_threads=0 / nr=0 / decimate=1 / interlaced=0 / bluray_compat=0 / constrained_intra=0 / bframes=9 / b_pyramid=2 / b_adapt=2 / b_bias=0 / direct=3 / weightb=1 / open_gop=0 / weightp=2 / keyint=240 / keyint_min=23 / scenecut=40 / intra_refresh=0 / rc=2pass / mbtree=0 / bitrate=3499 / ratetol=1.0 / qcomp=0.60 / qpmin=0 / qpmax=69 / qpstep=4 / cplxblur=20.0 / qblur=0.5 / ip_ratio=1.40 / pb_ratio=1.30 / aq=1:1.00
Language                       : English
Default                        : Yes
Forced                         : No

Audio #1
ID                             : 2
Format                         : AC-3
Format/Info                    : Audio Coding 3
Mode extension                 : CM (complete main)
Format settings, Endianness    : Big
Codec ID                       : A_AC3
Duration                       : 1h 40mn
Bit rate mode                  : Constant
Bit rate                       : 192 Kbps
Channel(s)                     : 2 channels
Channel positions              : Front: L R
Sampling rate                  : 48.0 KHz
Frame rate                     : 31.250 fps (1536 spf)
Compression mode               : Lossy
Stream size                    : 138 MiB (5%)
Title                          : 2.0 @ 192 kbps - К1
Language                       : Ukrainian
Default                        : Yes
Forced                         : No

Audio #2
ID                             : 3
Format                         : AC-3
Format/Info                    : Audio Coding 3
Mode extension                 : CM (complete main)
Format settings, Endianness    : Big
Codec ID                       : A_AC3
Duration                       : 1h 40mn
Bit rate mode                  : Constant
Bit rate                       : 448 Kbps
Channel(s)                     : 6 channels
Channel positions              : Front: L C R, Side: L R, LFE
Sampling rate                  : 48.0 KHz
Frame rate                     : 31.250 fps (1536 spf)
Compression mode               : Lossy
Stream size                    : 322 MiB (11%)
Title                          : 5.1 @ 384 kbps - Original
Language                       : English
Default                        : No
Forced                         : No

Text
ID                             : 4
Format                         : UTF-8
Codec ID                       : S_TEXT/UTF8
Codec ID/Info                  : UTF-8 Plain Text
Duration                       : 1h 38mn
Bit rate                       : 34 bps
Count of elements              : 1142
Stream size                    : 25.3 KiB (0%)
Title                          : Full
Language                       : English
Default                        : No
Forced                         : No

Menu
00:00:00.000                   : en:A Terrible Accident
00:08:07.000                   : en:Starting Over
00:14:59.000                   : en:Celebrity Boy
00:24:40.000                   : en:Zowie
00:31:12.000                   : en:Indian Burial Ground
00:42:00.000                   : en:Happy Halloween
00:51:07.000                   : en:Gus Returns
00:55:01.000                   : en:Dead Animals
01:05:32.000                   : en:Road Kill
01:15:46.000                   : en:You Bury Your Own
01:23:04.000                   : en:No Brain, No Pain
01:27:17.000                   : en:Dead Is Better
01:36:46.000                   : en:Credits
Джерело: &


Срібний реліз (на рейтинг впливає 50% завантаженого)
 Трекер:    Зареєстрований   

Завантажити / скачати фільм українською



відео для новачків



 Зареєстрований:   2016-12-27 21:50
 Розмір:   5.67 GB 
 Оцінка фільму:   9/10 (Голосів: 7)
   
don pedro 
Попереджень: 1
Попереджень: 1 


З нами з: 29.06.11
Востаннє: 18.08.17
Повідомлень: 10035

2016-12-27 21:52  
В другій частині, до речі, грає Едвард Ферлонг/малий Джон Коннор з "Термінатора-2".
Aussie 
Частий відвідувач


З нами з: 04.10.12
Востаннє: 16.08.17
Повідомлень: 26

2016-12-28 07:33  
Панове,

А про що друга частина? У Кінга, начебто, другої книги не було... чи то фантазії режисера на тему?

MSKolesnikov 
Новенький


З нами з: 09.06.16
Востаннє: 15.08.17
Повідомлень: 8

2016-12-28 13:25  
Aussie
Як прихильник Кінга можу сказати що не було) Мабуть фантазії, зараз сам буду дивитись на цей "продукт"

Aussie 
Частий відвідувач


З нами з: 04.10.12
Востаннє: 16.08.17
Повідомлень: 26

2016-12-29 08:38  
MSKolesnikov

Буду радий почути про Ваші враження від перегляду.

MSKolesnikov 
Новенький


З нами з: 09.06.16
Востаннє: 15.08.17
Повідомлень: 8

2016-12-30 14:14  
Aussie
Ну, скажу що 2 частина варта перегляду) Сюжет не такий закручений як у романах Кінга, але актори та спецефекти вирішують Happy дивитись цікаво и приємно

Ваш часовий пояс: GMT + 2 Години

Нова тема   Відповісти