Дударик Назавжди - Коляда (2002) [FLAC] [Folk]

Нові коментарі

Нова тема   Відповісти
Автор Повідомлення
romkop 
Новенький


З нами з: 26.05.09
Востаннє: 19.08.17
Повідомлень: 20

2016-12-24 04:04  
Дударик Назавжди - Коляда (2002) [FLAC] [Folk]

Дударик Назавжди - Коляда (2002) [FLAC] [Folk]


Стиль: Christian Ethno Folk
Країна, місто: Україна, Львів
Видавець: Lion records, спонсор Кредит Банк Україна
Виконавці: чоловічий хор "Дударик Назавжди", художній керівник - Дмитро Кацал
Пісні:
    * 01. Ой, дай, Боже - слова і музика Віталія Боднара
    * 02. Бог Предвічний - народна коляда
    * 03. В Вифлеємі новина - народна коляда
    * 04. Народився Бог на санях - муз. В. Жданкіна, сл. Б.-І. Антонича
    * 05. В глибокій долині - народна коляда
    * 06. Час радости, веселости - народна коляда
    * 07. Вселенная, веселися - народна коляда
    * 08. Дивная новина - народна коляда
    * 09. Хто там по дорозі - народна коляда
    * 10. Спи, Ісусе, спи - народна коляда
    * 11. Добрий вечір - народна коляда
    * 12. Бог ся раждає - народна коляда
    * 13. На небі зірка - народна коляда
    * 14. В Різдвяну ніч - народна коляда
    * 15. Нова радість стала - народна коляда
    * 16. Тиха ніч - народна коляда

Тривалість: 00:54:00
Мова: українська
Аудіо-кодек: FLAC
Бітрейт: 684 кб/с
Джерело: власний диск / скани + відео взяті з роздачі в форматі мп3 на Гуртом

Роздача в mp3 (ріп від користувача anome) : https://toloka.to/t9554


 Трекер:    Зареєстрований   

Завантажити / скачати українську музику



відео для новачків



 Зареєстрований:   2016-12-24 04:04
 Розмір:   352 MB 
 Оцінка музики:   10/10 (Голосів: 5)
   
romkop 
Новенький


З нами з: 26.05.09
Востаннє: 19.08.17
Повідомлень: 20

2016-12-24 04:07  
Ріп робив під лінуксом з допомогою ripit / cdparanoia.

Роздача в mp3 (ріп від користувача anome) : https://toloka.to/t9554

pvm 
Поважний учасник


З нами з: 05.03.10
Востаннє: 19.08.17
Повідомлень: 160

2016-12-27 19:37  
А чи не можна в роздачі додавати файлики .cue чи .m3u, для запуску диску одним файлом.
І якось хочеться бачити log файл

ssTAss 
Модератор музики


З нами з: 05.07.08
Востаннє: 19.08.17
Повідомлень: 11776

2016-12-27 21:59  
romkop написано:
+ відео взяті з роздачі в форматі мп3

це відео було на диску? треба оформити відповідно

romkop 
Новенький


З нами з: 26.05.09
Востаннє: 19.08.17
Повідомлень: 20

2016-12-28 17:26  
pvm написано:

А чи не можна в роздачі додавати файлики .cue чи .m3u, для запуску диску одним файлом.
І якось хочеться бачити log файл


Вітання,

Log є включений в роздачі, ripitlog.txt
Поділяю ваше прагнення слухати диск одним файлом, тому купив собі оригінальний диск, і слухаю. :о)))

pvm65 
Частий відвідувач


З нами з: 02.01.16
Востаннє: 19.08.17
Повідомлень: 48

2017-01-05 22:21  
Що о? Зараз поїду в 2002 рік і куплю.
romkop 
Новенький


З нами з: 26.05.09
Востаннє: 19.08.17
Повідомлень: 20

2017-01-06 02:53  
pvm65 написано:

Що о? Зараз поїду в 2002 рік і куплю.

Змінено: pvm65 (2017-01-05 21:23)


Добре, pvm65, якщо ти такий аудіофіл, то тримай cue нижче. Мені довелося його трохи вручну відредагувати (додав назви пісень, файлів і т.д.), тому перевір, будь-ласка, чи він в тебе працює, і дайся чути.
[url]
https://www.dropbox.com/sh/o08vl2uf7c1e4uo/AACLHOogCIGe5evaW9PrT600a?dl=0[/url]
REM GENRE Folk
REM DATE 2002
REM DISCID f00fe011
PERFORMER "Дударик Назавжди"
TITLE "Коляда"
FILE "01. Ой, дай, Боже.flac" WAVE
TRACK 01 AUDIO
TITLE "Ой, дай, Боже"
PERFORMER "Дударик Назавжди"
INDEX 01 00:00:00
FILE "02. Бог Предвічний.flac" WAVE
TRACK 02 AUDIO
TITLE "Бог Предвічний"
PERFORMER "Дударик Назавжди"
INDEX 01 07:23:73
FILE "03. В Вифлеємі новина.flac" WAVE
TRACK 03 AUDIO
TITLE "В Вифлеємі новина"
PERFORMER "Дударик Назавжди"
INDEX 01 10:17:01
FILE "04. Народився Бог на санях.flac" WAVE
TRACK 04 AUDIO
TITLE "Народився Бог на санях"
PERFORMER "Дударик Назавжди"
INDEX 01 13:56:21
FILE "05. В глибокій долині.flac" WAVE
TRACK 05 AUDIO
TITLE "В глибокій долині"
PERFORMER "Дударик Назавжди"
INDEX 01 16:03:63
FILE "06. Час радости, веселости.flac" WAVE
TRACK 06 AUDIO
TITLE "Час радости, веселости"
PERFORMER "Дударик Назавжди"
INDEX 01 19:10:74
FILE "07. Вселенная, веселися.flac" WAVE
TRACK 07 AUDIO
TITLE "Вселенная, веселися"
PERFORMER "Дударик Назавжди"
INDEX 01 21:37:51
FILE "08. Дивная новина.flac" WAVE
TRACK 08 AUDIO
TITLE "Дивная новина"
PERFORMER "Дударик Назавжди"
INDEX 01 23:29:12
FILE "09. Хто там по дорозі.flac" WAVE
TRACK 09 AUDIO
TITLE "Хто там по дорозі"
PERFORMER "Дударик Назавжди"
INDEX 01 27:33:55
FILE "10. Спи, Ісусе, спи.flac" WAVE
TRACK 10 AUDIO
TITLE "Спи, Ісусе, спи.flac"
PERFORMER "Дударик Назавжди"
INDEX 01 30:22:16
FILE "11. Добрий вечір.flac" WAVE
TRACK 11 AUDIO
TITLE "Добрий вечір"
PERFORMER "Дударик Назавжди"
INDEX 01 34:03:44
FILE "12. Бог ся раждає.flac" WAVE
TRACK 12 AUDIO
TITLE "Бог ся раждає"
PERFORMER "Дударик Назавжди"
INDEX 01 39:31:08
FILE "13. На небі зірка.flac" WAVE
TRACK 13 AUDIO
TITLE "На небі зірка"
PERFORMER "Дударик Назавжди"
INDEX 01 43:22:27
FILE "14. В Різдвяну ніч.flac" WAVE
TRACK 14 AUDIO
TITLE "В Різдвяну ніч"
PERFORMER "Дударик Назавжди"
INDEX 01 45:13:34
FILE "15. Нова радість стала.flac" WAVE
TRACK 15 AUDIO
TITLE "Нова радість стала"
PERFORMER "Дударик Назавжди"
INDEX 01 47:17:12
FILE "16. Тиха ніч.flac" WAVE
TRACK 16 AUDIO
TITLE "Тиха ніч"
PERFORMER "Дударик Назавжди"
INDEX 01 49:59:38

Ваш часовий пояс: GMT + 2 Години

Нова тема   Відповісти