Явище / The Happening (2008) 1080p 2xUkr/Eng | Sub Ukr/Eng

Нові коментарі

Нова тема   Відповісти
Автор Повідомлення
staf777 
Відео Гуртом - підтримка та поширення
Відео Гуртом - підтримка та поширення


З нами з: 16.11.16
Востаннє: 11.12.19
Повідомлень: 3043

2016-12-23 19:44  
Явище / The Happening (2008) 1080p 2xUkr/Eng | Sub Ukr/Eng

Явище / The Happening (2008) 1080p 2xUkr/Eng | Sub Ukr/Eng


Жанр: фантастика, трилер
Країна: США, Індія, Франція



Кінокомпанія: Twentieth Century Fox Film Corporation, UTV Motion Pictures, Spyglass Entertainment, Blinding Edge Pictures, Dune Entertainment
Режисер: М. Найт Ш'ямалан / M. Night Shyamalan
Актори: Марк Волберґ / Mark Wahlberg, Зуї Дешанель / Zooey Deschanel, Джон Леґуізамо / John Leguizamo, Ешлiн Санчез / Ashlyn Sanchez, Беттi Бакклi / Betty Buckley, Спенсер Бреслiн / Spencer Breslin, Роберт Бейлi мол. / Robert Bailey Jr., Френк Колiсон / Frank Collison та інші

Сюжет:
Історія про сім'ю, яка намагається втекти від загрози, що загрожує всьому людству. Біда приходить з нізвідки, наздоганяє раптово, змушуючи людей масово здійснювати самогубства. Страшна напасть, епідемія або нова хвороба? Що це? Ніхто не знає ...

Рейтинг MPAA: R - особам до 17 років обов'язкова присутність батьків або дорослого опікуна
Вікова категорія: 16+

Тривалість: 01:30:23
Якість: 1080p
Відео:
кодек:
розмір кадру: 1920x1038
бітрейт: 23000 кб/с

Аудіо # 1:
мова: українська
переклад: професійний дубльований | Невафільм Україна
кодек: 5.1
бітрейт: 448 кб/с
примітка: з цим же дубляжем транслювався по Новому каналу
Інформація про дубляж
Фільм дубльований студією Невафільм Україна на замовлення кінокомпанії 20 століття Фокс та компанії Геміні
Переклад: Федір Сидорук
Режисер дубляжу: Ольга Фокіна
Асистент режисера: Анна Пащенко
Звукорежисер: Олексій Загарін
Координатор проету: Лариса Шаталова
Ролі дублювали: Марк Волберґ/Елліот Мур - Дмитро Завадський, Зої Дешанель/Альма - Наталя Романько-Кисельова, Джон Леґузіамо/Джуліан - Юрій Ребрик, Беті Баклі/М-с Джонс - Ніна Касторф, Ешлін Санчез/Джесс - Ліза Прима, Роберт Бейлі мол./Джаред - Олексій Коваленко, Довгий - Валерій Легін, Джеремі Стронґ/Остер - Станіслав Щокін, Спенсер Бреслін/Джош - Максим Запісочний; Директор, Ведучий - Євген Пашин, Мати - Катерина Коновалова, Господар - Микола Карцев, Дружина - Людмила Ардельян, Едвард Джеймс Гайленд/Професор Воллас - Юрій Мисєнков, написи - Микола Боклан?, Дередж Гардінґ/Кондуктор - актор, який озвучує в еквілібріум від нового каналу та інші.
Аудіо # 2:
мова: українська
переклад: багатоголосий закадровий
кодек: 2.0
бітрейт: 192 кб/с

Аудіо # 3:
мова: англійська
переклад: оригінал
кодек: 5.1
бітрейт: 1509 кб/с

Субтитри # 1-2:
мова: українська (форсовані, повні)
тип: програмні (м'які)
формат: *.srt

Субтитри# 3-6:
мова: англійська (форсовані, повні №1, повні №2, коментарі)
тип: програмні (м'які)
формат: *.srt
Info
Код:
General
Unique ID                      : 212762772790091322588758153007960380866 (0xA0109E98A5FC63A8850A77847ECF55C2)
Complete name                  : E:\HDCLUB\The Happening (2008)[2xUkr,Eng sub.Ukr,Eng] 1080p [Hurtom].
Format                         :
Format version                 : Version 4 / Version 2
File size                      : 16.1 GiB
Duration                       : 1h 30mn
Overall bit rate               : 25.5 Mbps
Movie name                     : The Happening (2008)[2xUkr,Eng sub.Ukr,Eng] 1080p [Hurtom]
Encoded date                   : UTC 2016-12-26 13:24:54
Writing application            : v9.5.0 ('Quiet Fire') 64bit
Writing library                : libebml v1.3.4 + v1.4.5
Attachements                   : cover.jpg..jpg

Video
ID                             : 1
Format                         : AVC
Format/Info                    : Advanced Video Codec
Format profile                 : [email protected]
Format settings, CABAC         : Yes
Format settings, ReFrames      : 4 frames
Codec ID                       : V_MPEG4/ISO/AVC
Duration                       : 1h 30mn
Bit rate                       : 23.0 Mbps
Width                          : 1 920 pixels
Height                         : 1 038 pixels
Display aspect ratio           : 1.85:1
Frame rate mode                : Constant
Frame rate                     : 23.976 (24000/1001) fps
Color space                    : YUV
Chroma subsampling             : 4:2:0
Bit depth                      : 8 bits
Scan type                      : Progressive
Bits/(Pixel*Frame)             : 0.481
Stream size                    : 14.5 GiB (90%)
Title                          : The Happening (2008) 1080p
Writing library                : core 119 r2106 07efeb4
Encoding settings              : cabac=1 / ref=4 / deblock=1:-3:-3 / analyse=0x3:0x133 / me=umh / subme=10 / psy=1 / psy_rd=1.10:0.00 / mixed_ref=1 / me_range=48 / chroma_me=1 / trellis=2 / 8x8dct=1 / cqm=0 / deadzone=21,11 / fast_pskip=0 / chroma_qp_offset=-2 / threads=18 / sliced_threads=0 / nr=0 / decimate=1 / interlaced=0 / bluray_compat=0 / constrained_intra=0 / bframes=9 / b_pyramid=2 / b_adapt=2 / b_bias=0 / direct=3 / weightb=1 / open_gop=0 / weightp=2 / keyint=250 / keyint_min=23 / scenecut=40 / intra_refresh=0 / rc_lookahead=60 / rc=2pass / mbtree=1 / bitrate=23000 / ratetol=1.0 / qcomp=0.70 / qpmin=0 / qpmax=69 / qpstep=4 / cplxblur=20.0 / qblur=0.5 / vbv_maxrate=40000 / vbv_bufsize=30000 / nal_hrd=none / ip_ratio=1.40 / aq=1:0.70
Language                       : English
Default                        : Yes
Forced                         : No

Audio #1
ID                             : 2
Format                         : AC-3
Format/Info                    : Audio Coding 3
Mode extension                 : CM (complete main)
Format settings, Endianness    : Big
Codec ID                       : A_AC3
Duration                       : 1h 30mn
Bit rate mode                  : Constant
Bit rate                       : 448 Kbps
Channel(s)                     : 6 channels
Channel positions              : Front: L C R, Side: L R, LFE
Sampling rate                  : 48.0 KHz
Frame rate                     : 31.250 fps (1536 spf)
Compression mode               : Lossy
Stream size                    : 290 MiB (2%)
Title                          : [UA-DUB BluRay EUR|]
Language                       : Ukrainian
Default                        : Yes
Forced                         : Yes

Audio #2
ID                             : 3
Format                         : AC-3
Format/Info                    : Audio Coding 3
Mode extension                 : CM (complete main)
Format settings, Endianness    : Big
Codec ID                       : A_AC3
Duration                       : 1h 30mn
Bit rate mode                  : Constant
Bit rate                       : 192 Kbps
Channel(s)                     : 2 channels
Channel positions              : Front: L R
Sampling rate                  : 48.0 KHz
Frame rate                     : 31.250 fps (1536 spf)
Compression mode               : Lossy
Stream size                    : 124 MiB (1%)
Title                          : [UA-MVO-1+1|]
Language                       : Ukrainian
Default                        : No
Forced                         : Yes

Audio #3
ID                             : 4
Format                         :
Format/Info                    : Digital Theater Systems
Mode                           : 16
Format settings, Endianness    : Big
Codec ID                       : A_DTS
Duration                       : 1h 30mn
Bit rate mode                  : Constant
Bit rate                       : 1 509 Kbps
Channel(s)                     : 6 channels
Channel positions              : Front: L C R, Side: L R, LFE
Sampling rate                  : 48.0 KHz
Frame rate                     : 93.750 fps (512 spf)
Bit depth                      : 24 bits
Compression mode               : Lossy
Stream size                    : 976 MiB (6%)
Title                          : Original
Language                       : English
Default                        : No
Forced                         : No

Audio #4
ID                             : 5
Format                         : AC-3
Format/Info                    : Audio Coding 3
Mode extension                 : CM (complete main)
Format settings, Endianness    : Big
Codec ID                       : A_AC3
Duration                       : 1h 30mn
Bit rate mode                  : Constant
Bit rate                       : 448 Kbps
Channel(s)                     : 2 channels
Channel positions              : Front: L R
Sampling rate                  : 48.0 KHz
Frame rate                     : 31.250 fps (1536 spf)
Compression mode               : Lossy
Stream size                    : 290 MiB (2%)
Title                          : Commetary
Language                       : English
Default                        : No
Forced                         : No

Text #1
ID                             : 6
Format                         : UTF-8
Codec ID                       : S_TEXT/UTF8
Codec ID/Info                  : UTF-8 Plain Text
Duration                       : 1h 12mn
Bit rate                       : 2 bps
Count of elements              : 20
Stream size                    : 1.10 KiB (0%)
Title                          : Forced
Language                       : Ukrainian
Default                        : No
Forced                         : No

Text #2
ID                             : 7
Format                         : UTF-8
Codec ID                       : S_TEXT/UTF8
Codec ID/Info                  : UTF-8 Plain Text
Duration                       : 1h 21mn
Bit rate                       : 97 bps
Count of elements              : 943
Stream size                    : 58.4 KiB (0%)
Title                          : Full
Language                       : Ukrainian
Default                        : No
Forced                         : No

Text #3
ID                             : 8
Format                         : UTF-8
Codec ID                       : S_TEXT/UTF8
Codec ID/Info                  : UTF-8 Plain Text
Duration                       : 41s 292ms
Bit rate                       : 46 bps
Count of elements              : 8
Stream size                    : 241 Bytes (0%)
Title                          : Forced
Language                       : English
Default                        : No
Forced                         : No

Text #4
ID                             : 9
Format                         : UTF-8
Codec ID                       : S_TEXT/UTF8
Codec ID/Info                  : UTF-8 Plain Text
Duration                       : 1h 21mn
Bit rate                       : 58 bps
Count of elements              : 920
Stream size                    : 35.0 KiB (0%)
Title                          : Full
Language                       : English
Default                        : No
Forced                         : No

Text #5
ID                             : 10
Format                         : UTF-8
Codec ID                       : S_TEXT/UTF8
Codec ID/Info                  : UTF-8 Plain Text
Duration                       : 1h 19mn
Bit rate                       : 5 bps
Count of elements              : 40
Stream size                    : 2.98 KiB (0%)
Language                       : English
Default                        : No
Forced                         : No

Text #6
ID                             : 11
Format                         : UTF-8
Codec ID                       : S_TEXT/UTF8
Codec ID/Info                  : UTF-8 Plain Text
Duration                       : 1h 19mn
Bit rate                       : 68 bps
Count of elements              : 731
Stream size                    : 39.9 KiB (0%)
Title                          : Commentary
Language                       : English
Default                        : No
Forced                         : No
Скріншоти




Джерело: &
Особиста оцінка: 0 - не дивився


 Трекер:    Зареєстрований   

Завантажити / скачати фільм українською



відео для новачків



 Зареєстрований:   2016-12-26 16:53
 Розмір:   16.11 GB 
 Оцінка фільму:   8.8/10 (Голосів: 15)
   
Інші релізи
   Явище / The Happening (2008) Remux 1080p 2xUkr/Eng | Sub Ukr/Eng kryk-v.ya.  1 / 0   21.8 GB   2019-07-08 18:18 
   Явище / The Happening (2008) AVC 2xUkr/Eng | Sub Ukr/Eng staf777  4 / 0   2.77 GB   2018-06-06 19:55 
   Явище / The Happening (2008) 2xUkr/Eng Arsenfpu  3 / 0   2.01 GB   2015-07-31 07:21 
   Явище / The Happening (2008) 720p Ukr/Eng | Sub Ukr/Eng/Multi igor911  4 / 0   8.15 GB   2014-10-19 19:57 
   Явище / The Happening (2008) DVD9 Eng/Cze/Pol/Hun/Rus/Ukr | Ліцензія Beffis  2 / 0   6.85 GB   2012-05-24 12:24 
Virake 
Localize Team
Localize Team


З нами з: 07.07.09
Востаннє: 11.12.19
Повідомлень: 6469

2016-12-26 19:06  
пам'ятаю цей фільм - один із дуже небагатьох, що на DVD в Україні виходили з українською озвучкою.
Gespenst 
VIP


З нами з: 30.09.09
Востаннє: 11.12.19
Повідомлень: 296

2016-12-26 21:46  
так собі фільм. Напевно поспішали випустити.
Electroz 
Відео Гуртом - підтримка та поширення
Відео Гуртом - підтримка та поширення


З нами з: 18.09.14
Востаннє: 11.12.19
Повідомлень: 3665

2016-12-26 22:58  
staf777 написано:

Text #1
ID                             : 6
Format                         : UTF-8
Codec ID                       : S_TEXT/UTF8
Codec ID/Info                  : UTF-8 Plain Text
Duration                       : 1h 12mn
Bit rate                       : 2 bps
Count of elements              : 20
Stream size                    : 1.10 KiB (0%)
Title                          : Forced
Language                       : Ukrainian
Default                        : No
Forced                         : No

Чому не поставили за замовчуванням?

Ваш часовий пояс: GMT + 2 Години

Нова тема   Відповісти