Невірний / The Infidel (2010) 720p Ukr/Eng | Sub Eng

Нові коментарі

Нова тема   Відповісти
Автор Повідомлення
staf777 
Відео Гуртом - підтримка та поширення
Відео Гуртом - підтримка та поширення


З нами з: 16.11.16
Востаннє: 22.10.17
Повідомлень: 522

2016-12-23 14:36  
Невірний / The Infidel (2010) 720p Ukr/Eng | Sub Eng

Невірний / The Infidel (2010) 720p Ukr/Eng | Sub Eng


Жанр: комедія, драма
Країна: Великобританія



Кінокомпанія: Met Film, Met Film Production, Ombadsman, Salt Company International, The, Slingshot Productions
Режисер: Джош Аппіньянезі
Актори: Арчі Панджабі, Йігал Наор, Стюарт Скудамор, Стюарт Ентоні, Скотт Уолтерс, Омід Джалілі, Міна Анвар, Джеймс Флойд, Аміт Шах

Сюжет:
Махмуд Назір — щасливий батько сімейства й власник невеликої таксомоторної компанії в Лондоні. Особливою релігійністю ніколи не відрізнявся. Однак, коли син задумав одружитися на дівчині на ім'я Узма, мати якої вийшла заміж за екстремістського ісламського проповідника Аршада, Назир, щоб не вдарити обличчям в бруд перед новою ріднею, вирішив показати себе правовірним мусульманином. Але в той же день на нього обрушується несподівана звістка: розбираючи старі папери матері, він знаходить свідотство про всиновлення. Виявляється, що Махмуд — уроджений єврей, і звуть його Солі Шимшиловіц!!!


Тривалість: 01:45:02
Якість: 720p
Відео:
кодек:
розмір кадру: 1280x720
бітрейт: 9000 кб/с

Аудіо # 1:
мова: українська
переклад: двоголосий закадровий
кодек: 2.0
бітрейт: 192 кб/с

Аудіо # 2:
мова: англійська
переклад: оригінал
кодек: 5.1
бітрейт: 640 кб/с

Субтитри:
мова: англійська
тип: програмні (м'які)
формат: *.srt
Info
General
Unique ID : 251225274385741176532140844055351285230 (0xBD003A55DC7FD6FFBFFC2AEB66C055EE)
Complete name : E:\HDCLUB\The Infidel (2010) 720p [Hurtom] (1).
Format :
Format version : Version 4 / Version 2
File size : 7.21 GiB
Duration : 1h 45mn
Overall bit rate : 9 830 Kbps
Movie name : The Infidel (2010) 720p [Hurtom]
Encoded date : UTC 2016-12-24 10:25:07
Writing application : mkvmerge v9.5.0 ('Quiet Fire') 64bit
Writing library : libebml v1.3.4 + libmatroska v1.4.5
Attachements : cover.jpg

Video
ID : 1
Format : AVC
Format/Info : Advanced Video Codec
Format profile : [email protected]
Format settings, CABAC : Yes
Format settings, ReFrames : 9 frames
Codec ID : V_MPEG4/ISO/AVC
Duration : 1h 45mn
Bit rate : 9 000 Kbps
Width : 1 280 pixels
Height : 720 pixels
Display aspect ratio : 16:9
Frame rate mode : Constant
Frame rate : 24.000 fps
Color space : YUV
Chroma subsampling : 4:2:0
Bit depth : 8 bits
Scan type : Progressive
Bits/(Pixel*Frame) : 0.407
Stream size : 6.60 GiB (92%)
Title : Невірний / The Infidel (2010) 720p Ukr/Eng | Sub [Hurtom]
Writing library : core 148 r2692+54 69a6f49 t_mod_Custom [[email protected] X86_64]
Encoding settings : cabac=1 / ref=9 / deblock=1:-3:-3 / analyse=0x3:0x133 / me=umh / subme=11 / psy=1 / fade_compensate=0.00 / psy_rd=1.10:0.05 / mixed_ref=1 / me_range=48 / chroma_me=1 / trellis=2 / 8x8dct=1 / cqm=0 / deadzone=21,11 / fast_pskip=0 / chroma_qp_offset=-3 / threads=6 / lookahead_threads=1 / sliced_threads=0 / nr=0 / decimate=1 / interlaced=0 / bluray_compat=0 / constrained_intra=0 / fgo=0 / bframes=8 / b_pyramid=2 / b_adapt=2 / b_bias=0 / direct=3 / weightb=1 / open_gop=0 / weightp=2 / keyint=250 / keyint_min=24 / scenecut=40 / intra_refresh=0 / rc=2pass / mbtree=0 / bitrate=9000 / ratetol=1.0 / qcomp=0.60 / qpmin=0:0:0 / qpmax=69:69:69 / qpstep=4 / cplxblur=20.0 / qblur=0.5 / ip_ratio=1.30 / pb_ratio=1.20 / aq=3:0.70 / aq-sensitivity=10.00 / aq-factor=1.00:1.00:1.00 / aq2=1:0.65 / aq2-sensitivity=15.00 / aq2-factor=1.00:1.00:1.00 / aq3=3:[0.60:0.60]:[0.60:0.60]:[0.60:0.60]:[0.60:0.60] / aq3-sensitivity=10.00 / aq3-factor=[1.00:1.00]:[1.00:1.00]:[1.00:1.00] / aq3-boundary=192:64:24
Language : English
Default : Yes
Forced : No
Color range : Limited
Matrix coefficients : BT.709

Audio #1
ID : 2
Format : AC-3
Format/Info : Audio Coding 3
Mode extension : CM (complete main)
Format settings, Endianness : Big
Codec ID : A_AC3
Duration : 1h 45mn
Bit rate mode : Constant
Bit rate : 192 Kbps
Channel(s) : 2 channels
Channel positions : Front: L R
Sampling rate : 48.0 KHz
Frame rate : 31.250 fps (1536 spf)
Compression mode : Lossy
Stream size : 144 MiB (2%)
Title : UA-DVO
Language : Ukrainian
Default : Yes
Forced : Yes

Audio #2
ID : 3
Format : AC-3
Format/Info : Audio Coding 3
Mode extension : CM (complete main)
Format settings, Endianness : Big
Codec ID : A_AC3
Duration : 1h 45mn
Bit rate mode : Constant
Bit rate : 640 Kbps
Channel(s) : 6 channels
Channel positions : Front: L C R, Side: L R, LFE
Sampling rate : 48.0 KHz
Frame rate : 31.250 fps (1536 spf)
Compression mode : Lossy
Stream size : 481 MiB (7%)
Title : Original
Language : English
Default : No
Forced : No

Text
ID : 4
Format : UTF-8
Codec ID : S_TEXT/UTF8
Codec ID/Info : UTF-8 Plain Text
Duration : 1h 44mn
Bit rate : 74 bps
Count of elements : 1893
Stream size : 56.5 KiB (0%)
Language : English
Default : No
Forced : No
Скріншоти





Джерело: &
Особиста оцінка: 0 - не дивився


 Трекер:    Зареєстрований   

Завантажити / скачати фільм українською



відео для новачків



 Зареєстрований:   2016-12-24 14:46
 Розмір:   7.21 GB 
 Оцінка фільму:   8.2/10 (Голосів: 5)
   
Інші релізи
   Невірний / The Infidel (2010) Ukr/Eng kicyunya  2 / 0   1.47 GB   2016-01-10 02:11 
Ваш часовий пояс: GMT + 2 Години

Нова тема   Відповісти