Гнів / Man on Fire (2004) Remux 1080p 2xUkr/Eng | Sub Eng

Нові коментарі

Нова тема   Відповісти
Автор Повідомлення
Anonymous 







2016-12-23 13:28  
Гнів / Man on Fire (2004) Remux 1080p 2xUkr/Eng | Sub Eng



Жанр: кримінальний, драма, екшн
Країна: США, Великобританія



Кінокомпанія: Fox 2000 Pictures, Regency Enterprises, New Regency Pictures
Режисер: Тоні Скотт (Tony Scott)
Актори: Дензел Вашинґтон (Denzel Washington), Дакота Феннінг (Dakota Fanning), Марк Ентоні (Marc Anthony), Рада Мітчел (Radha Mitchell), Крістофер Вокен (Christopher Walken), Джанкарло Джанніні (Giancarlo Giannini), Рейчел Тікотін (Rachel Ticotin), Хесус Очоа (Jesús Ochoa), Міккі Рурк (Mickey Rourke), Анджеліна Пелаєз (Angelina Peláez)

Сюжет:
Заможні жителі Мехіко в паніці: всього за шість днів у місті зникло 24 людини. Колишній агент ЦРУ Джон Крізі погоджується стати охоронцем дев`ятирічної дочки промисловця Семюеля Рамоса. Незабаром дівчинку викрадають з метою викупу, і Крізі починає мститися усім, хто втягнутий у її викрадання або одержує від цьoго зиск. І ніхто його не зупинить.


Тривалість: 02:26:07
Якість: Remux
Відео:
кодек:
розмір кадру: 1920x1080
бітрейт: 29868 кб/с

Аудіо # 1:
мова: українська
переклад: багатоголосий закадровий
кодек: 5.1
бітрейт: 640 кб/с
Джерело озвучення:


Аудіо # 2:
мова: українська
переклад: двоголосий закадровий
кодек: 5.1
бітрейт: 640 кб/с
Джерело озвучення:


Аудіо # 3:
мова: англійська
переклад: оригінал
кодек: 5.1
бітрейт: 1536 кб/с
Джерело озвучення:


Аудіо # 4:
мова: англійська
переклад: коментарі режисера Тоні Скотта
кодек: 2.0
бітрейт: 224 кб/с

Аудіо # 5:
мова: англійська
переклад: коментарі продюсера Лукаса Фостера, сценариста Брайана Гелгеланда та Дакоти Феннінг
кодек: 2.0
бітрейт: 224 кб/с

Субтитри:
мова: англійська
тип: програмні (м'які)
формат: *.srt
Info

General
Unique ID : 265530647380226637629022640498693775494 (0xC7C357ADB359DD03E1716DAB61022086)
Format :
Format version : Version 4 / Version 2
File size : 30.4 GiB
Duration : 2h 26mn
Overall bit rate mode : Variable
Overall bit rate : 29.8 Mbps
Encoded date : UTC 2016-12-23 11:02:58
Writing library : libebml v1.3.0 + v1.4.1
_STATISTICS_WRITING_DATE_UTC : 2016-12-23 11:02:58
_STATISTICS_TAGS : BPS DURATION NUMBER_OF_FRAMES NUMBER_OF_BYTES
DURATION : 02:26:07.776000000
NUMBER_OF_FRAMES : 273993
NUMBER_OF_BYTES : 701422080

Video
ID : 1
Format : AVC
Format/Info : Advanced Video Codec
Format profile : [email protected]
Format settings, CABAC : Yes
Format settings, ReFrames : 4 frames
Codec ID : V_MPEG4/ISO/AVC
Duration : 2h 26mn
Bit rate mode : Variable
Maximum bit rate : 34.0 Mbps
Width : 1 920 pixels
Height : 1 080 pixels
Display aspect ratio : 16:9
Frame rate mode : Constant
Frame rate : 23.976 fps
Color space : YUV
Chroma subsampling : 4:2:0
Bit depth : 8 bits
Scan type : Progressive
Default : Yes
Forced : No
Color primaries : BT.709
Transfer characteristics : BT.709
Matrix coefficients : BT.709

Audio #1
ID : 2
Format : AC-3
Format/Info : Audio Coding 3
Mode extension : CM (complete main)
Format settings, Endianness : Big
Codec ID : A_AC3
Duration : 2h 26mn
Bit rate mode : Constant
Bit rate : 640 Kbps
Channel(s) : 6 channels
Channel positions : Front: L C R, Side: L R, LFE
Sampling rate : 48.0 KHz
Bit depth : 16 bits
Compression mode : Lossy
Stream size : 669 MiB (2%)
Title : ICTV
Language : Ukrainian
Default : No
Forced : Yes

Audio #2
ID : 3
Format : AC-3
Format/Info : Audio Coding 3
Mode extension : CM (complete main)
Format settings, Endianness : Big
Codec ID : A_AC3
Duration : 2h 26mn
Bit rate mode : Constant
Bit rate : 640 Kbps
Channel(s) : 6 channels
Channel positions : Front: L C R, Side: L R, LFE
Sampling rate : 48.0 KHz
Bit depth : 16 bits
Compression mode : Lossy
Stream size : 669 MiB (2%)
Title : 2+2
Language : Ukrainian
Default : No
Forced : No

Audio #3
ID : 4
Format :
Format/Info : Digital Theater Systems
Format profile : MA / Core
Mode : 16
Format settings, Endianness : Big
Codec ID : A_DTS
Duration : 2h 26mn
Bit rate mode : Variable
Bit rate : Unknown / 1 509 Kbps
Channel(s) : 6 channels
Channel positions : Front: L C R, Side: L R, LFE
Sampling rate : 48.0 KHz
Bit depth : 24 bits
Compression mode : Lossless / Lossy
Title : Original
Language : English
Default : No
Forced : No

Audio #4
ID : 5
Format : AC-3
Format/Info : Audio Coding 3
Mode extension : CM (complete main)
Format settings, Endianness : Big
Codec ID : A_AC3
Duration : 2h 26mn
Bit rate mode : Constant
Bit rate : 224 Kbps
Channel(s) : 2 channels
Channel positions : Front: L R
Sampling rate : 48.0 KHz
Bit depth : 16 bits
Compression mode : Lossy
Stream size : 234 MiB (1%)
Title : Cooments Toni Scott
Language : English
Default : No
Forced : No

Audio #5
ID : 6
Format : AC-3
Format/Info : Audio Coding 3
Mode extension : CM (complete main)
Format settings, Endianness : Big
Codec ID : A_AC3
Duration : 2h 26mn
Bit rate mode : Constant
Bit rate : 224 Kbps
Channel(s) : 2 channels
Channel positions : Front: L R
Sampling rate : 48.0 KHz
Bit depth : 16 bits
Compression mode : Lossy
Stream size : 234 MiB (1%)
Title : Comments Lucas Foster, Brian Helgeland, Dakota Fanning
Language : English
Default : No
Forced : No

Text
ID : 7
Format : UTF-8
Codec ID : S_TEXT/UTF8
Codec ID/Info : UTF-8 Plain Text
Language : English
Default : Yes
Forced : No
Скріншоти




Джерело: &
Особиста оцінка: 10 - без зайвих вагань рекомендую всім!


Золотий реліз (завантажене не впливає на рейтинг)
 Трекер:    Зареєстрований   

Завантажити / скачати фільм українською



відео для новачків



 Зареєстрований:   2016-12-23 13:28
 Розмір:   30.4 GB 
 Оцінка фільму:   9.7/10 (Голосів: 12)
   
Інші релізи
   Гнів / Лють / Man on Fire (2004) 720p 2xUkr/Eng | Sub Multi leroykendall  4 / 0   10.71 GB   2013-02-23 16:41 
   Гнів / Лють / Man on Fire (2004) 2xUkr/Eng | sub Eng JACKUS  4 / 3   3.37 GB   2013-01-30 14:35 
Pegass 
VIP


З нами з: 17.12.09
Востаннє: 17.12.18
Повідомлень: 877

2018-07-07 13:15  
Anonymous написано:
Гнів / Man on Fire (2004) Remux 1080p 2xUkr/Eng | Sub Eng

В неті з'явився 1080p [Open Matte]

Magda-Lena 
Частий відвідувач


З нами з: 19.01.11
Востаннє: 17.12.18
Повідомлень: 48

2018-09-16 15:03  
Для бажаючих завантажити з сервера: Гнів / Лють / Man on Fire (2004).Open Matte..720p.UKR.DVO_(9,1GB)
Anоnymous 
Попереджень: 2
Попереджень: 2 


З нами з: 25.08.18
Востаннє: 17.12.18
Повідомлень: 311

2018-09-16 16:14  
Magda-Lena написано:
.720p


Я не експерт.......але щось тут не сходиться...........

Anonymous написано:
Remux 1080p


Pegass написано:
1080p [Open Matte]

Ваш часовий пояс: GMT + 2 Години

Нова тема   Відповісти