По той бік дверей / The Other Side of the Door (2016) Remux 1080p Ukr/Eng | Sub Ukr/Eng

Нові коментарі

Нова тема   Відповісти
Останній раз роздавалося keddr (2017-11-30)
Автор Повідомлення
staf777 
Відео Гуртом - підтримка та поширення
Відео Гуртом - підтримка та поширення


З нами з: 16.11.16
Востаннє: 06.11.17
Повідомлень: 522

2016-12-23 12:49  
По той бік дверей / The Other Side of the Door (2016) Remux 1080p Ukr/Eng | Sub Ukr/Eng

По той бік дверей / The Other Side of the Door (2016) Remux 1080p Ukr/Eng | Sub Ukr/Eng
укр.постер

По той бік дверей / The Other Side of the Door (2016) Remux 1080p Ukr/Eng | Sub Ukr/Eng
Жанр: жахи
Країна: Велика Британія, Індія



Кінокомпанія: 42, Kriti Productions
Режисер: Йоханнес Робертс
Актори: Сара Уейн Келліс, Джеремі Сісто, Хавьєр Ботет, Софія Росінскі, Логан Кререн, Джекс Малкольм, Сучітра Піллай-Малік

Сюжет:
Родина живе ідеальним життям за кордоном, доки трагічний випадок не забирає життя їхнього юного сина. Невтішна матір дізнається про древній ритуал, яким хлопця можна повернути на Землю, аби попрощатися з ним. Вона вирушає до стародавнього храму, двері якого виконують роль таємного порталу між двома світами. Проте, порушивши священну заповідь ніколи не відчиняти ці двері, вона руйнує баланс між життям і смертю.


Тривалість: 01:35:41
Якість: Remux
Відео:
кодек:
розмір кадру: 1920x1080
бітрейт: 29744 кб/с

Аудіо # 1:
мова: українська
переклад: професійний дубльований
кодек: 2.0
бітрейт: 192 кб/с

Аудіо # 2:
мова: англійська
переклад: оригінал
кодек: -HD MA 5.1
бітрейт: 3579 кб/с

Аудіо # 3:
мова: англійська
переклад: коментарі
кодек: 5.1
бітрейт: 448 кб/с

Субтитри:
мова: українська
тип: пререндерні
формат: PGS

Субтитри:
мова: англійська
тип: пререндерні
формат: PGS
Info
General
Unique ID : 254695646216667239303359758667962132343 (0xBF9C98E07C3C085ABA0212A1EA7C2777)
Complete name : E:\HDCLUB\THE_OTHER_SIDE_OF_THE_DOOR_REMUX_HDCLUB\BDMV\STREAM\The Other Side of the Door (2016) Remux 1080p[Hurtom] (1).
Format :
Format version : Version 4 / Version 2
File size : 22.7 GiB
Duration : 1h 35mn
Overall bit rate mode : Variable
Overall bit rate : 34.0 Mbps
Movie name : The Other Side of the Door (2016) Remux 1080p[Hurtom]
Encoded date : UTC 2016-12-23 11:27:14
Writing application : mkvmerge v9.5.0 ('Quiet Fire') 64bit
Writing library : libebml v1.3.4 + libmatroska v1.4.5
Attachements : cover.jpg..jpg

Video
ID : 1
Format : AVC
Format/Info : Advanced Video Codec
Format profile : [email protected]
Format settings, CABAC : Yes
Format settings, ReFrames : 2 frames
Codec ID : V_MPEG4/ISO/AVC
Duration : 1h 35mn
Bit rate mode : Variable
Bit rate : 29.7 Mbps
Width : 1 920 pixels
Height : 1 080 pixels
Display aspect ratio : 16:9
Frame rate mode : Constant
Frame rate : 23.976 (24000/1001) fps
Color space : YUV
Chroma subsampling : 4:2:0
Bit depth : 8 bits
Scan type : Progressive
Bits/(Pixel*Frame) : 0.598
Stream size : 19.9 GiB (88%)
Title : The Other Side of the Door (2016) Remux 1080p[Hurtom]
Default : Yes
Forced : No

Audio #1
ID : 2
Format : AC-3
Format/Info : Audio Coding 3
Mode extension : CM (complete main)
Format settings, Endianness : Big
Codec ID : A_AC3
Duration : 1h 35mn
Bit rate mode : Constant
Bit rate : 192 Kbps
Channel(s) : 2 channels
Channel positions : Front: L R
Sampling rate : 48.0 KHz
Frame rate : 31.250 fps (1536 spf)
Compression mode : Lossy
Stream size : 131 MiB (1%)
Title : [UA-DUB- iTunes]
Language : Ukrainian
Default : Yes
Forced : Yes

Audio #2
ID : 3
Format :
Format/Info : Digital Theater Systems
Format profile : MA / Core
Mode : 16
Format settings, Endianness : Big
Codec ID : A_DTS
Duration : 1h 35mn
Bit rate mode : Variable / Constant
Bit rate : 3 579 Kbps / 1 509 Kbps
Channel(s) : 6 channels
Channel positions : Front: L C R, Side: L R, LFE
Sampling rate : 48.0 KHz
Frame rate : 93.750 fps (512 spf)
Bit depth : 24 bits
Compression mode : Lossless / Lossy
Stream size : 2.39 GiB (11%)
Title : [ORIGINAL]
Language : English
Default : No
Forced : No

Audio #3
ID : 4
Format : AC-3
Format/Info : Audio Coding 3
Mode extension : CM (complete main)
Format settings, Endianness : Big
Codec ID : A_AC3
Duration : 1h 35mn
Bit rate mode : Constant
Bit rate : 448 Kbps
Channel(s) : 6 channels
Channel positions : Front: L C R, Side: L R, LFE
Sampling rate : 48.0 KHz
Frame rate : 31.250 fps (1536 spf)
Compression mode : Lossy
Stream size : 307 MiB (1%)
Title : |Descriptive|
Language : English
Default : No
Forced : No

Text #1
ID : 5
Format : PGS
Muxing mode : zlib
Codec ID : S_HDMV/PGS
Codec ID/Info : Picture based subtitle format used on BDs/HD-DVDs
Duration : 1h 34mn
Bit rate : 9 760 bps
Count of elements : 1468
Stream size : 6.63 MiB (0%)
Language : Ukrainian
Default : Yes
Forced : No

Text #2
ID : 6
Format : PGS
Muxing mode : zlib
Codec ID : S_HDMV/PGS
Codec ID/Info : Picture based subtitle format used on BDs/HD-DVDs
Duration : 1h 30mn
Bit rate : 7 428 bps
Count of elements : 1814
Stream size : 4.81 MiB (0%)
Language : English
Default : No
Forced : No
Скріншоти




Джерело: &
Особиста оцінка: 0 - не дивився


Золотий реліз (завантажене не впливає на рейтинг)
 Трекер:    Зареєстрований   

Завантажити / скачати фільм українською



відео для новачків



 Зареєстрований:   2016-12-23 14:52
 Розмір:   22.71 GB 
 Оцінка фільму:   7.2/10 (Голосів: 6)
   
Siegfried 
Свій


З нами з: 01.11.11
Востаннє: 16.12.17
Повідомлень: 136

2016-12-25 15:39  
На раз. Є непогані моменти, наприклад храм, але їх замало. Головне питання до сценарію.
В підсумку на 4 з 10.

vitalikfv 
Новенький


З нами з: 29.12.13
Востаннє: 16.12.17
Повідомлень: 12

2017-10-01 04:01  
Народ, роздайте.
Ваш часовий пояс: GMT + 2 Години

Нова тема   Відповісти