Подорож машиною часу / Time After Time (1979) 720p Ukr/Eng | Sub Eng

Нові коментарі

Нова тема   Відповісти
Останній раз роздавалося Jl6owa (2017-10-16)
Автор Повідомлення
staf777 
Відео Гуртом - підтримка та поширення
Відео Гуртом - підтримка та поширення


З нами з: 16.11.16
Востаннє: 11.09.17
Повідомлень: 522

2016-12-22 22:47  
Подорож машиною часу / Time After Time (1979) 720p Ukr/Eng | Sub Eng

Подорож машиною часу / Time After Time (1979) 720p Ukr/Eng | Sub Eng


Жанр: пригодницький, комедія, драма, мелодрама, фантастика, трилер
Країна: США



Кінокомпанія: Orion Pictures Corporation, Warner Bros. Pictures
Режисер: Ніколас Мейер / Nicholas Meyer
Актори: Малкольм МакДавелл / Malcolm McDowell, Девід Ворнер / David Warner, Мері Стінберджен / Mary Steenburgen, Чарльз Кіоффі / Charles Cioffi, Кент Вільямс / Kent Williams, Андонія Катсарос / Andonia Katsaros, Патті Д'Арбанвіль / Patti D'Arbanville, Джеймс Ґарретт / James Garrett, Кейт МакКоннелл / Keith McConnell, Лео Льюіс / Leo Lewis, Бірон Bебстер / Byron Webster, Карін де ла Пеня / Karin de la Penha, Джральдіне Барон / Geraldine Baron, Лорі Майн / Laurie Main, Джозеф Махер / Joseph Maher

Сюжет:
У вікторіанській Англії Джек-різник вбиває чергову повію. Поліція переслідує його і потрапляє у будинок письменника Герберта Уеллса, який зібрав друзів, щоб представити їм свій винахід - машину часу. Він ще не встиг її випробувати, але за нього це зробив Джек-Різник, який, ховаючись від поліції, відправився у 1979 рік. Герберт Уеллс, переконаний, що в майбутньому настане Утопія, не буде воєн і злочинності, вирішує відправитися вслід за ним, бо цей кривавий маніяк може посіяти хаос в Утопії...


Тривалість: 01:39:50
Якість: 720p
Відео:
кодек:
розмір кадру: 1280x534
бітрейт: 9983 кб/с

Аудіо # 1:
мова: українська
переклад: багатоголосий закадровий
кодек: 2.0
бітрейт: 192 кб/с

Аудіо # 2:
мова: англійська
переклад: оригінал
кодек: 2.0
бітрейт: 1509 кб/с

Аудіо # 3:
мова: англійська
переклад: коментарі
кодек: 2.0
бітрейт: 448 кб/с

Субтитри:
мова: англійська[Full]
тип: програмні (м'які)
формат: *.srt

Субтитри:
мова: англійська[SDH]
тип: програмні (м'які)
формат: *.srt
Info
General
Unique ID : 235100664044080015585543884524822900970 (0xB0DEBDAA7E75AD058E90B321BBCAB0EA)
Complete name : J:\» HD українською » Фільми в HD\Комедія\Time After Time (1979) 720p[Hurtom].
Format :
Format version : Version 4 / Version 2
File size : 9.49 GiB
Duration : 1h 52mn
Overall bit rate : 12.1 Mbps
Movie name : Time After Time (1979) 720p[Hurtom]
Encoded date : UTC 2016-12-22 20:22:22
Writing application : mkvmerge v9.5.0 ('Quiet Fire') 64bit
Writing library : libebml v1.3.4 + libmatroska v1.4.5
Attachements : cover.jpg..jpg

Video
ID : 1
Format : AVC
Format/Info : Advanced Video Codec
Format profile : [email protected]
Format settings, CABAC : Yes
Format settings, ReFrames : 12 frames
Codec ID : V_MPEG4/ISO/AVC
Duration : 1h 52mn
Bit rate : 9 983 Kbps
Width : 1 280 pixels
Height : 534 pixels
Display aspect ratio : 2.40:1
Frame rate mode : Constant
Frame rate : 23.976 (24000/1001) fps
Color space : YUV
Chroma subsampling : 4:2:0
Bit depth : 8 bits
Scan type : Progressive
Bits/(Pixel*Frame) : 0.609
Stream size : 7.81 GiB (82%)
Title : Time After Time (1979) 720p[Hurtom]
Writing library : core 148 r2721kMod 72d53ab
Encoding settings : cabac=1 / ref=12 / deblock=1:-3:-3 / analyse=0x3:0x133 / me=umh / subme=10 / psy=1 / fade_compensate=0.00 / psy_rd=1.05:0.00 / mixed_ref=1 / me_range=32 / chroma_me=1 / trellis=2 / 8x8dct=1 / cqm=0 / deadzone=21,11 / fast_pskip=0 / chroma_qp_offset=-2 / threads=8 / lookahead_threads=1 / sliced_threads=0 / nr=0 / decimate=0 / interlaced=0 / bluray_compat=0 / constrained_intra=0 / fgo=0 / bframes=9 / b_pyramid=2 / b_adapt=2 / b_bias=0 / direct=3 / weightb=1 / open_gop=0 / weightp=2 / keyint=250 / keyint_min=23 / scenecut=40 / intra_refresh=0 / rc_lookahead=150 / rc=crf / mbtree=0 / crf=15.5000 / qcomp=0.70 / qpmin=0 / qpmax=69 / qpstep=4 / vbv_maxrate=62500 / vbv_bufsize=78125 / crf_max=0.0 / nal_hrd=none / filler=0 / ip_ratio=1.30 / pb_ratio=1.20 / aq=3:0.65
Language : English
Default : No
Forced : No

Audio #1
ID : 2
Format : AC-3
Format/Info : Audio Coding 3
Mode extension : CM (complete main)
Format settings, Endianness : Big
Codec ID : A_AC3
Duration : 1h 52mn
Bit rate mode : Constant
Bit rate : 192 Kbps
Channel(s) : 2 channels
Channel positions : Front: L R
Sampling rate : 48.0 KHz
Frame rate : 31.250 fps (1536 spf)
Compression mode : Lossy
Stream size : 154 MiB (2%)
Title : багатоголосий закадровий INTER
Language : Ukrainian
Default : Yes
Forced : Yes

Audio #2
ID : 3
Format :
Format/Info : Digital Theater Systems
Mode : 16
Format settings, Endianness : Big
Codec ID : A_DTS
Duration : 1h 52mn
Bit rate mode : Constant
Bit rate : 1 509 Kbps
Channel(s) : 2 channels
Channel positions : Front: L R
Sampling rate : 48.0 KHz
Frame rate : 93.750 fps (512 spf)
Bit depth : 24 bits
Compression mode : Lossy
Stream size : 1.18 GiB (12%)
Title : [ORIGINAL]
Language : English
Default : No
Forced : No

Audio #3
ID : 4
Format : AC-3
Format/Info : Audio Coding 3
Mode extension : CM (complete main)
Format settings, Endianness : Big
Codec ID : A_AC3
Duration : 1h 52mn
Bit rate mode : Constant
Bit rate : 448 Kbps
Channel(s) : 2 channels
Channel positions : Front: L R
Sampling rate : 48.0 KHz
Frame rate : 31.250 fps (1536 spf)
Compression mode : Lossy
Stream size : 359 MiB (4%)
Title : |Commentary by Malcolm McDowell & Nicholas Meyer|
Language : English
Default : No
Forced : No

Text #1
ID : 5
Format : UTF-8
Codec ID : S_TEXT/UTF8
Codec ID/Info : UTF-8 Plain Text
Duration : 1h 47mn
Bit rate : 55 bps
Count of elements : 1573
Stream size : 43.7 KiB (0%)
Title : Full
Language : English
Default : No
Forced : No

Text #2
ID : 6
Format : UTF-8
Codec ID : S_TEXT/UTF8
Codec ID/Info : UTF-8 Plain Text
Duration : 1h 51mn
Bit rate : 59 bps
Count of elements : 1790
Stream size : 48.4 KiB (0%)
Title : SDH
Language : English
Default : No
Forced : No
Скріншоти




Джерело: &
Особиста оцінка: 0 - не дивився
подякa п. MAKAPOHHIK, ratbol за наданий сирий звук


Срібний реліз (на рейтинг впливає 50% завантаженого)
 Трекер:    Зареєстрований   

Завантажити / скачати фільм українською



відео для новачків



 Зареєстрований:   2016-12-23 10:36
 Розмір:   9.49 GB 
 Оцінка фільму:   7/10 (Голосів: 3)
   
Інші релізи
Ваш часовий пояс: GMT + 2 Години

Нова тема   Відповісти