Облівіон / Свiт забуття / Oblivion (2013) AVC 2xUkr/Eng | Sub Eng

Нові коментарі

Нова тема   Відповісти
Автор Повідомлення
Anonymous 







2016-12-22 11:20  
Облівіон / Свiт забуття / Oblivion (2013) AVC 2xUkr/Eng | Sub Eng

Облівіон / Свiт забуття / Oblivion (2013) AVC 2xUkr/Eng | Sub Eng

Альтернативний постер



Жанр: бойовик, фантастика, пригодницький, трилер, мелодрама
Країна: США



Кінокомпанія: Universal Pictures, Relativity Media, Monolith Pictures (III), Chernin Entertainment, Radical Studios
Режисер: Джозеф Косінскі / Joseph Kosinski
Актори: Том Круз / Tom Cruise, Ольга Куриленко / Olga Kurylenko, Андреа Райзборо / Andrea Riseborough, Морґан Фрімен / Morgan Freeman, Ніколай Костер-Вальдау / Nikolaj Coster-Waldau, Мелісса Лео / Melissa Leo, Зої Белл / Zoë Bell, Ебіґейл Лоу / Abigail Lowe, Ізабель Лоу / Isabelle Lowe, Девід Медісон / David Madison та інші

Сюжет:
Земля, що пережила війну з інопланетними загарбниками, спорожніла; залишки людства готуються покинути непридатну для життя планету. Головний герой - технік з обслуговування дронів - знаходить розбитий корабель NASA, команда якого гине у нього на очах. Йому вдається врятувати лише одну жінку - і незабаром він розуміє, що це змінить його життя...


Тривалість: 02:04:42
Якість: AVC
Відео:
кодек:
розмір кадру: 1046 х 438
бітрейт: 2467 кб/с

Аудіо # 1:
мова: українська
переклад: багатоголосий закадровий
кодек: 5.1
бітрейт: 448 кб/с
примітка:
НТН написано:
доріжка створена накладанням діалогів на центральний канал оригінальної доріжки, таким чином усунуто прикре хрипіння звуку на музичних сценах


Аудіо # 2:
мова: українська
переклад: багатоголосий закадровий
кодек: 2.0
бітрейт: 192 кб/с
примітка:
Gelios написано:
під час звучання музики відчувається невелике хрипіння звуку, так транслювали по ТБ


Аудіо # 3:
мова: українська
переклад: професійний дубльований | MIC
кодек: 2.0
бітрейт: 192 кб/с
примітка: запис з мікрофону, присутні сторонні звуки

Аудіо # 4:
мова: англійська
переклад: оригінал
кодек: 5.1
бітрейт: 448 кб/с

Субтитри #1:
мова: українська (форсовані, на написи)
тип: програмні (м'які)
формат: *.srt

Субтитри #2:
мова: англійська
тип: програмні (м'які)
формат: *.srt

Збережено оригінальні розділи, як на Blu-ray.
Info та log
Код:
Format                      :
Format version              : Version 4 / Version 2
File size                   : 3.27 GiB
Duration                    : 2 h 4 min
Overall bit rate            : 3 752 kb/s

Video
ID                          : 1
Format                      : AVC
Format/Info                 : Advanced Video Codec
Format profile              : [email protected]
Format settings, CABAC      : Yes
Format settings, ReFrames   : 13 frames
Codec ID                    : V_MPEG4/ISO/AVC
Duration                    : 2 h 4 min
Bit rate                    : 2 467 kb/s
Width                       : 1 046 pixels
Height                      : 438 pixels
Display aspect ratio        : 2.35:1
Original display aspect rat : 2.35:1
Frame rate mode             : Constant
Frame rate                  : 23.976 (24000/1001) FPS
Color space                 : YUV
Chroma subsampling          : 4:2:0
Bit depth                   : 8 bits
Scan type                   : Progressive
Bits/(Pixel*Frame)          : 0.225
Stream size                 : 2.15 GiB (66%)
Title                       : Облівіон / Свiт забуття / Oblivion (2013) AVC [[email protected]]
Writing library             : core 142 r2479kMod dd79a61
Encoding settings           : cabac=1 / ref=13 / deblock=1:-3:-3 / analyse=0x3:0x113 / me=umh / subme=11 / psy=1 / fade_compensate=0.00 / psy_rd=1.00:0.15 / mixed_ref=1 / me_range=48 / chroma_me=1 / trellis=2 / 8x8dct=1 / cqm=0 / deadzone=21,11 / fast_pskip=0 / chroma_qp_offset=0 / threads=6 / lookahead_threads=6 / sliced_threads=0 / slices=10 / nr=0 / decimate=1 / interlaced=0 / bluray_compat=0 / constrained_intra=0 / fgo=0 / bframes=16 / b_pyramid=2 / b_adapt=2 / b_bias=0 / direct=3 / weightb=1 / open_gop=1 / weightp=2 / keyint=240 / keyint_min=23 / scenecut=40 / intra_refresh=0 / rc_lookahead=40 / rc=2pass / mbtree=0 / bitrate=2467 / ratetol=1.0 / qcomp=0.60 / qpmin=0 / qpmax=69 / qpstep=4 / cplxblur=20.0 / qblur=0.5 / vbv_maxrate=50000 / vbv_bufsize=62500 / nal_hrd=none / filler=0 / ip_ratio=1.40 / pb_ratio=1.30 / aq=1:1.00
Language                    : English
Default                     : Yes
Forced                      : No
Color range                 : Limited
Color primaries             : BT.709
Transfer characteristics    : BT.709
Matrix coefficients         : BT.709

Audio #1
ID                          : 2
Format                      : AC-3
Format/Info                 : Audio Coding 3
Mode extension              : CM (complete main)
Format settings, Endianness : Big
Codec ID                    : A_AC3
Duration                    : 2 h 4 min
Bit rate mode               : Constant
Bit rate                    : 448 kb/s
Channel(s)                  : 6 channels
Channel positions           : Front: L C R, Side: L R, LFE
Sampling rate               : 48.0 kHz
Frame rate                  : 31.250 FPS (1536 spf)
Bit depth                   : 16 bits
Compression mode            : Lossy
Stream size                 : 400 MiB (12%)
Title                       : MVO [TRK Ukraina] 5.1 448 Kbps [Hurtom-НТН,slavik_v_z,xslim]
Language                    : Ukrainian
Default                     : Yes
Forced                      : Yes

Audio #2
ID                          : 3
Format                      : AC-3
Format/Info                 : Audio Coding 3
Mode extension              : CM (complete main)
Format settings, Endianness : Big
Codec ID                    : A_AC3
Duration                    : 2 h 4 min
Bit rate mode               : Constant
Bit rate                    : 192 kb/s
Channel(s)                  : 2 channels
Channel positions           : Front: L R
Sampling rate               : 48.0 kHz
Frame rate                  : 31.250 FPS (1536 spf)
Bit depth                   : 16 bits
Compression mode            : Lossy
Stream size                 : 171 MiB (5%)
Title                       : MVO [TRK Ukraina] 2.0 192 Kbps [Hurtom-Gelios,slavik_v_z,xslim]
Language                    : Ukrainian
Default                     : No
Forced                      : No

Audio #3
ID                          : 4
Format                      : AC-3
Format/Info                 : Audio Coding 3
Mode extension              : CM (complete main)
Format settings, Endianness : Big
Codec ID                    : A_AC3
Duration                    : 2 h 4 min
Bit rate mode               : Constant
Bit rate                    : 192 kb/s
Channel(s)                  : 2 channels
Channel positions           : Front: L R
Sampling rate               : 48.0 kHz
Frame rate                  : 31.250 FPS (1536 spf)
Bit depth                   : 16 bits
Compression mode            : Lossy
Stream size                 : 171 MiB (5%)
Title                       : Dub [Microphone] 2.0 192 Kbps [Hurtom-pyatachok]
Language                    : Ukrainian
Default                     : No
Forced                      : No

Audio #4
ID                          : 5
Format                      : AC-3
Format/Info                 : Audio Coding 3
Mode extension              : CM (complete main)
Format settings, Endianness : Big
Codec ID                    : A_AC3
Duration                    : 2 h 4 min
Bit rate mode               : Constant
Bit rate                    : 448 kb/s
Channel(s)                  : 6 channels
Channel positions           : Front: L C R, Side: L R, LFE
Sampling rate               : 48.0 kHz
Frame rate                  : 31.250 FPS (1536 spf)
Bit depth                   : 16 bits
Compression mode            : Lossy
Stream size                 : 400 MiB (12%)
Title                       : Original, 5.1 448 Kbps
Language                    : English
Default                     : No
Forced                      : No

Text #1
ID                          : 6
Format                      : UTF-8
Codec ID                    : S_TEXT/UTF8
Codec ID/Info               : UTF-8 Plain Text
Duration                    : 1 h 11 min
Bit rate                    : 0 b/s
Count of elements           : 14
Stream size                 : 306 Bytes (0%)
Title                       : Ukr Forced
Language                    : Ukrainian
Default                     : Yes
Forced                      : Yes

Text #2
ID                          : 7
Format                      : UTF-8
Codec ID                    : S_TEXT/UTF8
Codec ID/Info               : UTF-8 Plain Text
Duration                    : 1 h 57 min
Bit rate                    : 33 b/s
Count of elements           : 1020
Stream size                 : 28.5 KiB (0%)
Title                       : Eng full
Language                    : English
Default                     : No
Forced                      : No

Menu
00:00:00.000                : en:00:00:00.000
00:04:31.354                : en:00:04:31.354
00:12:51.813                : en:00:12:51.813
00:21:25.284                : en:00:21:25.284
00:27:20.138                : en:00:27:20.138
00:35:30.337                : en:00:35:30.337
00:40:06.779                : en:00:40:06.779
00:46:16.023                : en:00:46:16.023
00:52:22.181                : en:00:52:22.181
01:01:59.716                : en:01:01:59.716
01:07:59.409                : en:01:07:59.409
01:16:25.831                : en:01:16:25.831
01:22:08.173                : en:01:22:08.173
01:25:31.752                : en:01:25:31.752
01:30:22.542                : en:01:30:22.542
01:36:30.368                : en:01:36:30.368
01:40:29.106                : en:01:40:29.106
01:46:27.423                : en:01:46:27.423
01:53:05.320                : en:01:53:05.320
01:58:23.847                : en:01:58:23.847


Код:
[info]: frame I:1392 Avg QP:13.38 size: 78635
[info]: frame P:45272 Avg QP:15.33 size: 23408
[info]: frame B:132732 Avg QP:17.39 size: 8578
[info]: consecutive B-frames: 6.8% 3.9% 9.0% 14.2% 14.7% 35.8% 5.7% 2.3% 1.8% 1.0% 1.1% 0.9% 1.0% 0.7% 0.5% 0.2% 0.5%
[info]: kb/s:2467.35
[total]: encoded 179396 frames, 2.86 fps, 2467.35 kb/s, duration 17:24:48.07


Джерело: &
Подяка slavik_v_z та xslim за запис звуку з ТБ, НТН за створення якісної доріжки 5.1, Gelios'у за синхронізацію аудіо №2, pyatachok - за аудіо №3
Особиста оцінка: 10 - без зайвих вагань рекомендую всім!


 Трекер:    Зареєстрований   

Завантажити / скачати фільм українською



відео для новачків



 Зареєстрований:   2017-02-10 22:49
 Розмір:   3.27 GB 
 Оцінка фільму:   7.9/10 (Голосів: 55)
   
Інші релізи
   Облівіон / Свiт забуття / Oblivion (2013) 720p 2xUkr/Eng | Sub Eng igor911  8 / 0   8.86 GB   2017-02-10 23:57 
   Облівіон / Свiт забуття / Oblivion (2013) | Sub Eng НТН  9 / 0   2.19 GB   2017-02-10 11:59 
   Облівіон / Свiт забуття / Oblivion (2013) Gelios  29 / 0   1.45 GB   2016-12-20 16:47 
Lil`Antoni 
VIP


З нами з: 25.02.12
Востаннє: 19.04.17
Повідомлень: 320

2016-12-22 14:47  
Дякую, за цей реліз.
Дуже гарний фільм

ArtJazzCoo 
Новенький


З нами з: 07.02.12
Востаннє: 25.04.17
Повідомлень: 1

2016-12-24 12:14  
- Вчора в нашу квартиру заліз злодій.
- І що? Взяв щось?
- Та де там! Лежить у лікарні. Дружина думала, що це я повернувся так пізно...

demass 
Новенький


З нами з: 04.12.16
Востаннє: 22.04.17
Повідомлень: 14

2016-12-24 17:08  
Головний герой - Джек Харпер! Ось яка доля чекає малого із Двох з половиною чоловіків Happy
porto12 
Свій


З нами з: 28.10.08
Востаннє: 25.04.17
Повідомлень: 122

2016-12-31 16:57  
Колись давно був в кінотеатрі на цьому фільмі. Атмосферне кіно. Сюжет, гра акторів, музичний супровід - все на найвищому рівні. Всім рекомендую.
Lihva 
Новенький


З нами з: 08.12.12
Востаннє: 23.04.17
Повідомлень: 24

2017-01-06 21:02  
Дякую за реліз, ставлю 9, 5 за Фрімена, по двійці куриленко і крузу (з їхніми обличчями можна взагалі не напружуватися))))))
Maters 
VIP


З нами з: 27.03.12
Востаннє: 25.04.17
Повідомлень: 1219

2017-01-28 13:19  
Цікавий фільм, але 7/10
Anonymous 







2017-02-10 22:52  
Реліз оновлено!
Додано якісну українську доріжку 5.1 з тією ж озвучкою "України", але без прикрого хрипіння на музичних сценах

Lil`Antoni 
VIP


З нами з: 25.02.12
Востаннє: 19.04.17
Повідомлень: 320

2017-02-11 12:40  
Anonymous
А не можна прибрати озвучку з хрипінням тепер.
Я так зрозумів тепер вона вже не потрібна.
Чи я помиляюся?

Anonymous 







2017-02-11 12:42  
Lil`Antoni, я прибирати не буду, вона займає лише 5% контейнера.
bogd_b 
Частий відвідувач


З нами з: 09.01.12
Востаннє: 23.04.17
Повідомлень: 33

2017-03-18 23:10  
Можна переглянути. Погоджуюся з оцінкою 7 з 10.
Ваш часовий пояс: GMT + 2 Години

Нова тема   Відповісти