Dronny Darko - Outer Tehom (2014) [FLAC] | Dark Ambient / Drone

Нові коментарі

Нова тема   Відповісти
Автор Повідомлення
kolpavel 
VIP


З нами з: 04.05.14
Востаннє: 22.08.17
Повідомлень: 1155

2016-12-21 22:44  
Dronny Darko - Outer Tehom (2014) [FLAC] | Dark Ambient / Drone

Dronny Darko - Outer Tehom (2014) [FLAC] | Dark Ambient / Drone


Стиль: Dark Ambient / Drone
Країна, місто: Україна, Київ
Видавець: Cryo Chamber
Виконавці:
Олег Пузан
Пісні:
    1. Black Arts -13:00
    2. Mortal Skin - 13:00
    3. Snake Hole -13:00
    4. Arcane Shrine - 13:00

Тривалість: 00:52:00
Мова: iнструментальнi композицii
Аудіо-кодек: FLAC
Бітрейт: 1110-1241 кб/с
Джерело: трекер
Додаткова інформація:
Додаткова інформація:
Лог
foobar2000 1.3.9 / Замер динамического диапазона (DR) 1.1.1
Дата отчёта: 2016-12-20 16:19:10

--------------------------------------------------------------------------------
Анализ: Dronny Darko / Outer Tehom
--------------------------------------------------------------------------------

DR Пики RMS Продолжительность трека
--------------------------------------------------------------------------------
DR9 -1.06 дБ -13.60 дБ 13:00 01-Black Arts
DR7 -1.06 дБ -10.22 дБ 13:00 02-Mortal Skin
DR11 -1.06 дБ -16.47 дБ 13:00 03-Snake Hole
DR9 -1.06 дБ -13.85 дБ 13:00 04-Arcane Shrine
--------------------------------------------------------------------------------

Количество треков: 4
Реальные значения DR: DR9

Частота: 44100 Гц
Каналов: 2
Разрядность: 24
Битрейт: 1241 кбит/с
Кодек: FLAC
================================================================================
range
01 Black Arts
Dronny Darko - Outer Tehom (2014) [FLAC] | Dark Ambient / Drone


Якщо Ви справді бажаєте підтримати українське - після прослуховування, якщо музика вам сподобалась, придбайте ліцензійний диск. Підтримаймо вітчизняних виконавців!


Срібний реліз (на рейтинг впливає 50% завантаженого)
 Трекер:    Зареєстрований   

Завантажити / скачати українську музику



відео для новачків



 Зареєстрований:   2016-12-21 22:44
 Розмір:   430 MB 
 Оцінка музики:   10/10 (Голосів: 1)
   
Ваш часовий пояс: GMT + 2 Години

Нова тема   Відповісти