Dronny Darko - Spira Igneus (2016) [FLAC] | Dark Ambient / Drone

Нові коментарі

Нова тема   Відповісти
Останній раз роздавалося kolpavel (2017-08-18)
Автор Повідомлення
kolpavel 
VIP


З нами з: 04.05.14
Востаннє: 18.08.17
Повідомлень: 1156

2016-12-21 22:36  
Dronny Darko - Spira Igneus (2016) [FLAC] | Dark Ambient / Drone

Dronny Darko - Spira Igneus (2016) [FLAC] | Dark Ambient / Drone


Стиль: Dark Ambient Drone
Країна, місто: Україна, Київ
Видавець: Cryo Chamber
Виконавці:
Олег Пузан
Пісні:
    1. Scriptures - 09:00
    2. Rotten Orchestra - 06:00
    3. White Eyes - 04:00
    4. Three Rulers- 06:00
    5. Endless Cave - 06:00
    6. Forbidden Wisdom - 10:00
    7. Grey Echoes - 05:00

Тривалість: 00:46:03
Мова: iнструментальнi композицii
Аудіо-кодек: FLAC
Бітрейт: 1273-1389 кб/с
Джерело: трекер
Додаткова інформація:
Додаткова інформація:
Лог
foobar2000 1.3.9 / Замер динамического диапазона (DR) 1.1.1
Дата отчёта: 2016-12-20 17:53:09

--------------------------------------------------------------------------------
Анализ: Dronny Darko / Spira Igneus
--------------------------------------------------------------------------------

DR Пики RMS Продолжительность трека
--------------------------------------------------------------------------------
DR9 -0.21 дБ -11.15 дБ 9:00 01-Scriptures
DR11 -0.21 дБ -13.98 дБ 6:00 02-Rotten Orchestra
DR9 -0.21 дБ -11.13 дБ 4:00 03-White Eyes
DR9 -0.21 дБ -11.18 дБ 6:01 04-Three Rulers
DR8 -0.21 дБ -10.62 дБ 6:01 05-Endless Cave
DR10 -0.21 дБ -12.50 дБ 10:00 06-Forbidden Wisdom
DR9 -0.21 дБ -12.41 дБ 5:00 07-Grey Echoes
--------------------------------------------------------------------------------

Количество треков: 7
Реальные значения DR: DR9

Частота: 44100 Гц
Каналов: 2
Разрядность: 24
Битрейт: 1305 кбит/с
Кодек: FLAC
================================================================================
range
01 Scriptures
Dronny Darko - Spira Igneus (2016) [FLAC] | Dark Ambient / Drone


Якщо Ви справді бажаєте підтримати українське - після прослуховування, якщо музика вам сподобалась, придбайте ліцензійний диск. Підтримаймо вітчизняних виконавців!


Срібний реліз (на рейтинг впливає 50% завантаженого)
 Трекер:    Зареєстрований   

Завантажити / скачати українську музику



відео для новачків



 Зареєстрований:   2016-12-21 22:36
 Розмір:   435 MB 
 Оцінка музики:   10/10 (Голосів: 1)
   
Ваш часовий пояс: GMT + 2 Години

Нова тема   Відповісти