Dronny Darko - Neuroplasticity (2016) [FLAC] | Dark Ambient / Drone

Нові коментарі

Нова тема   Відповісти
Автор Повідомлення
kolpavel 
VIP


З нами з: 04.05.14
Востаннє: 20.08.17
Повідомлень: 1156

2016-12-21 22:24  
Dronny Darko - Neuroplasticity (2016) [FLAC] | Dark Ambient / Drone

Dronny Darko - Neuroplasticity (2016) [FLAC] | Dark Ambient / Drone


Стиль: Dark Ambient Drone
Країна, місто: Україна, Київ
Видавець: Cryo Chamber
Виконавці:
Олег Пузан
Пісні:
    01. Mirror Neurons - 15:01
    02. Circuits - 07:00
    03. Plazma Lake - 15:02
    04. Electrical Membrane - 10:01
    05. Ion Voltage - 05:00

Тривалість: 00:52:06
Мова: iнструментальнi композицii
Аудіо-кодек: FLAC
Бітрейт: 1243-1495 кб/с
Джерело: трекер
Додаткова інформація:
Додаткова інформація:
Лог
foobar2000 1.3.9 / Замер динамического диапазона (DR) 1.1.1
Дата отчёта: 2016-12-20 17:14:45

--------------------------------------------------------------------------------
Анализ: Dronny Darko / Neuroplasticity
--------------------------------------------------------------------------------

DR Пики RMS Продолжительность трека
--------------------------------------------------------------------------------
DR11 -0.76 дБ -13.39 дБ 15:02 01-Mirror Neurons
DR9 -0.76 дБ -11.35 дБ 7:01 02-Circuits
DR14 -0.76 дБ -17.20 дБ 15:03 03-Plazma Lake
DR8 -0.76 дБ -11.67 дБ 10:01 04-Electrical Membrane
DR8 -0.76 дБ -10.60 дБ 5:00 05-Ion Voltage
--------------------------------------------------------------------------------

Количество треков: 5
Реальные значения DR: DR10

Частота: 44100 Гц
Каналов: 2
Разрядность: 24
Битрейт: 1495 кбит/с
Кодек: FLAC
================================================================
range
01 Mirror Neurons
Dronny Darko - Neuroplasticity (2016) [FLAC] | Dark Ambient / Drone


Якщо Ви справді бажаєте підтримати українське - після прослуховування, якщо музика вам сподобалась, придбайте ліцензійний диск. Підтримаймо вітчизняних виконавців!


Срібний реліз (на рейтинг впливає 50% завантаженого)
 Трекер:    Зареєстрований   

Завантажити / скачати українську музику



відео для новачків



 Зареєстрований:   2016-12-21 22:27
 Розмір:   497 MB 
 Оцінка музики:   10/10 (Голосів: 1)
   
Ваш часовий пояс: GMT + 2 Години

Нова тема   Відповісти