Рік дракона / Year of the dragon (1985) 720p Ukr/Eng | Sub Eng

Нові коментарі

Нова тема   Відповісти
Останній раз роздавалося staf777 (2017-11-06)
Автор Повідомлення
staf777 
Відео Гуртом - підтримка та поширення
Відео Гуртом - підтримка та поширення


З нами з: 16.11.16
Востаннє: 06.11.17
Повідомлень: 522

2016-12-21 18:14  
Рік дракона / Year of the dragon (1985) 720p Ukr/Eng | Sub Eng

Рік дракона / Year of the dragon (1985) 720p Ukr/Eng | Sub Eng


Жанр: бойовик, трилер, драма, кримінальний
Країна: США



Кінокомпанія: Dino De Laurentiis Company
Режисер: Майкл Чіміно
Актори: Міккі Рурк, Джон Лоун, Еріан, Леонард Термо, Реймонд Дж. Беррі, Керолайн Кева, Едді Джонс, Віктор Вон

Сюжет:
Завдяки безпрецедентній жорстокості молодий Джоі Тай стає головою китайської мафії та безперечним лідером китайської громади. Стенлі Вайт, поліцейський та ветеран війни у В'єтнамі, який має найбільшу кількість нагород у Нью-Йорку та ненавидить азіатів з часів служби у Вєтнамі, стає на чолі поліцейського відділку у Чайнатауні. Обидва бажають зламати сталі давні правила. Обидва навряд чи підуть на компроміс, що призводить до неминучого кривавого конфлікту.


Тривалість: 02:14:25
Якість: 720p
Відео:
кодек:
розмір кадру: 1280x544
бітрейт: 9145 кб/с

Аудіо # 1:
мова: українська
переклад: багатоголосий закадровий
кодек: 2.0
бітрейт: 192 кб/с

Аудіо # 2:
мова: англійська
переклад: оригінал
кодек: 5.1
бітрейт: 1509 кб/с

Субтитри:
мова: англійська
тип: програмні (м'які)
формат: *.srt
Info
General
Unique ID : 212195554395962672133313091912763038174 (0x9FA36091FEA9B520B04647EB673DD9DE)
Complete name : J:\» HD українською » Фільми в HD\Бойовик\Year of the dragon (1985) 720p[Hurtom].
Format :
Format version : Version 4 / Version 2
File size : 10.4 GiB
Duration : 2h 14mn
Overall bit rate : 11.1 Mbps
Movie name : Year of the dragon (1985) 720p[Hurtom]
Encoded date : UTC 2016-12-21 16:12:39
Writing application : mkvmerge v9.5.0 ('Quiet Fire') 64bit
Writing library : libebml v1.3.4 + libmatroska v1.4.5
Attachements : cover.jpg..jpg

Video
ID : 1
Format : AVC
Format/Info : Advanced Video Codec
Format profile : [email protected]
Format settings, CABAC : Yes
Format settings, ReFrames : 12 frames
Codec ID : V_MPEG4/ISO/AVC
Duration : 2h 14mn
Bit rate : 9 388 Kbps
Width : 1 280 pixels
Height : 544 pixels
Display aspect ratio : 2.35:1
Frame rate mode : Constant
Frame rate : 23.976 (24000/1001) fps
Color space : YUV
Chroma subsampling : 4:2:0
Bit depth : 8 bits
Scan type : Progressive
Bits/(Pixel*Frame) : 0.562
Stream size : 8.82 GiB (85%)
Title : Year of the dragon (1985) 720p
Writing library : core 148 r2665kMod a01e339
Encoding settings : cabac=1 / ref=12 / deblock=1:-3:-3 / analyse=0x3:0x133 / me=umh / subme=10 / psy=1 / fade_compensate=0.00 / psy_rd=1.05:0.00 / mixed_ref=1 / me_range=24 / chroma_me=1 / trellis=2 / 8x8dct=1 / cqm=0 / deadzone=21,11 / fast_pskip=0 / chroma_qp_offset=-2 / threads=12 / lookahead_threads=3 / sliced_threads=0 / nr=0 / decimate=0 / interlaced=0 / bluray_compat=0 / constrained_intra=0 / fgo=0 / bframes=11 / b_pyramid=2 / b_adapt=2 / b_bias=0 / direct=3 / weightb=1 / open_gop=0 / weightp=2 / keyint=250 / keyint_min=23 / scenecut=40 / intra_refresh=0 / rc_lookahead=60 / rc=crf / mbtree=0 / crf=17.4000 / qcomp=0.60 / qpmin=0 / qpmax=69 / qpstep=4 / vbv_maxrate=62500 / vbv_bufsize=78125 / crf_max=0.0 / nal_hrd=none / filler=0 / ip_ratio=1.30 / pb_ratio=1.20 / aq=3:0.70 / zones=44998,46559,b=1.3/63926,64310,b=1.4/91804,92092,b=1.2/92113,92281,b=1.3/92413,92629,b=1.3/187692,193388,b=0.5
Language : English
Default : Yes
Forced : No
Color range : Limited
Matrix coefficients : BT.709

Audio #1
ID : 2
Format : AC-3
Format/Info : Audio Coding 3
Mode extension : CM (complete main)
Format settings, Endianness : Big
Codec ID : A_AC3
Duration : 2h 14mn
Bit rate mode : Constant
Bit rate : 192 Kbps
Channel(s) : 2 channels
Channel positions : Front: L R
Sampling rate : 48.0 KHz
Frame rate : 31.250 fps (1536 spf)
Compression mode : Lossy
Stream size : 185 MiB (2%)
Title : КІНО , 2/0 (L,R) ch, ~192.00 kbps
Language : Ukrainian
Default : Yes
Forced : Yes

Audio #2
ID : 3
Format :
Format/Info : Digital Theater Systems
Mode : 16
Format settings, Endianness : Big
Codec ID : A_DTS
Duration : 2h 14mn
Bit rate mode : Constant
Bit rate : 1 509 Kbps
Channel(s) : 6 channels
Channel positions : Front: L C R, Side: L R, LFE
Sampling rate : 48.0 KHz
Frame rate : 93.750 fps (512 spf)
Bit depth : 24 bits
Compression mode : Lossy
Stream size : 1.42 GiB (14%)
Title : English: 48 kHz, , 3/2 (L,C,R,l,r) + LFE ch, ~1510.00 kbps
Language : English
Default : No
Forced : No

Text
ID : 4
Format : UTF-8
Codec ID : S_TEXT/UTF8
Codec ID/Info : UTF-8 Plain Text
Duration : 2h 5mn
Bit rate : 60 bps
Count of elements : 1334
Stream size : 55.6 KiB (0%)
Language : English
Default : No
Forced : No
Скріншоти




Джерело: &
Особиста оцінка: 0 - не дивився


Срібний реліз (на рейтинг впливає 50% завантаженого)
 Трекер:    Зареєстрований   

Завантажити / скачати фільм українською



відео для новачків



 Зареєстрований:   2016-12-22 11:24
 Розмір:   10.42 GB 
 Оцінка фільму:   5.5/10 (Голосів: 4)
   
Інші релізи
   Рік дракона / Year of the dragon (1985) Ukr/Eng pov11  2 / 0   1.93 GB   2010-08-19 20:28 
Ваш часовий пояс: GMT + 2 Години

Нова тема   Відповісти