Трикутник / Triangle (2009) AVC 2xUkr/Eng | sub Ukr/Eng

Нові коментарі

Нова тема   Відповісти
Автор Повідомлення
krigg070 
Відео Гуртом - фільмокрай
Відео Гуртом - фільмокрай


З нами з: 29.10.14
Востаннє: 21.07.17
Повідомлень: 673

2016-12-20 14:46  
Трикутник / Triangle (2009) AVC 2xUkr/Eng | sub Ukr/Eng


Жанр: трилер, містика, жахи
Країна: Великобританія, Австралія



Кінокомпанія: Icon Entertainment International, Framestore, UK Film Council
Режисер: Крістофер Сміт / Christopher Smith
Актори: Меліса Джордж / Melissa George, Майкл Дорман / Michael Dorman, Генрі Ніксон / Henry Nixon, Рейчал Карпані / Rachael Carpani, Емма Ланґ / Emma Lung та інші

Сюжет:
Грег запрошує свою подругу Джесс, молоду матір-одиначку, провести день на яхті у колі своїх друзів. Сильний шторм перевертає судно, і ті, хто залишилися в живих, змушені чекати на допомогу, чіпляючись за перегорнутий корпус яхти. Порятунок приходить у вигляді величезного океанічного лайнера. Судно виявляється порожнім, годинник на борту зупинився. Але вони не єдині на цьому величезному кораблі - за ними хтось невпинно стежить...

Тривалість: 01:38:52
Якість: AVC (potroks)
Відео:
кодек:
розмір кадру: 1 064 х 450
бітрейт: 2 269 кб/с

Аудіо # 1:
мова: українська
переклад: багатоголосий закадровий
кодек: 2.0 (стерео)
бітрейт: 192 кб/с

Аудіо # 2:
мова: українська
переклад: багатоголосий закадровий
кодек: 2.0
бітрейт: 192 кб/с

Аудіо # 3:
мова: англійська
переклад: оригінал
кодек: 5.1
бітрейт: 448 кб/с

Аудіо # 4:
мова: англійська
переклад: оригінал (коментарі творця фільма)
кодек: OGG 2.0
бітрейт: 80 кб/с

Субтитри #1:
мова: українська
переклад: ninenine
тип: програмні (м'які)
формат: *.srt

Субтитри #2:
мова: англійська
тип: програмні (м'які)
формат: *.srt
Скріншоти
Info
Код:
Video
ID                             : 1
Format                         : AVC
Format/Info                    : Advanced Video Codec
Format profile                 : [email protected]
Format settings, CABAC         : Yes
Format settings, ReFrames      : 10 frames
Codec ID                       : V_MPEG4/ISO/AVC
Duration                       : 1h 38mn
Bit rate                       : 2 269 Kbps
Width                          : 1 064 pixels
Height                         : 450 pixels
Display aspect ratio           : 2.35:1
Frame rate mode                : Constant
Frame rate                     : 24.000 fps
Color space                    : YUV
Chroma subsampling             : 4:2:0
Bit depth                      : 8 bits
Scan type                      : Progressive
Bits/(Pixel*Frame)             : 0.197
Stream size                    : 1.56 GiB (71%)
Writing library                : core 125 r2208 d9d2288
Encoding settings              : cabac=1 / ref=10 / deblock=1:-2:-1 / analyse=0x3:0x133 / me=esa / subme=9 / psy=1 / psy_rd=1.03:0.00 / mixed_ref=1 / me_range=32 / chroma_me=1 / trellis=2 / 8x8dct=1 / cqm=0 / deadzone=21,11 / fast_pskip=0 / chroma_qp_offset=-2 / threads=9 / lookahead_threads=1 / sliced_threads=0 / nr=0 / decimate=1 / interlaced=0 / bluray_compat=0 / constrained_intra=0 / bframes=11 / b_pyramid=2 / b_adapt=2 / b_bias=0 / direct=3 / weightb=1 / open_gop=0 / weightp=2 / keyint=240 / keyint_min=23 / scenecut=40 / intra_refresh=0 / rc_lookahead=100 / rc=2pass / mbtree=1 / bitrate=2269 / ratetol=1.0 / qcomp=0.70 / qpmin=0 / qpmax=69 / qpstep=4 / cplxblur=20.0 / qblur=0.5 / vbv_maxrate=20000 / vbv_bufsize=25000 / nal_hrd=none / ip_ratio=1.35 / aq=1:0.80
Language                       : English
Default                        : Yes
Forced                         : No

Audio #1
ID                             : 2
Format                         : AC-3
Format/Info                    : Audio Coding 3
Mode extension                 : CM (complete main)
Format settings, Endianness    : Big
Codec ID                       : A_AC3
Duration                       : 1h 38mn
Bit rate mode                  : Constant
Bit rate                       : 192 Kbps
Channel(s)                     : 2 channels
Channel positions              : Front: L R
Sampling rate                  : 48.0 KHz
Frame rate                     : 31.250 fps (1536 spf)
Compression mode               : Lossy
Stream size                    : 136 MiB (6%)
Title                          : 2.0 @ 192 kbps - НТН
Language                       : Ukrainian
Default                        : Yes
Forced                         : No

Audio #2
ID                             : 3
Format                         : AC-3
Format/Info                    : Audio Coding 3
Mode extension                 : CM (complete main)
Format settings, Endianness    : Big
Codec ID                       : A_AC3
Duration                       : 1h 38mn
Bit rate mode                  : Constant
Bit rate                       : 192 Kbps
Channel(s)                     : 2 channels
Channel positions              : Front: L R
Sampling rate                  : 48.0 KHz
Frame rate                     : 31.250 fps (1536 spf)
Compression mode               : Lossy
Stream size                    : 136 MiB (6%)
Title                          : 2.0 @ 192 kbps - НЛО
Language                       : Ukrainian
Default                        : No
Forced                         : No

Audio #3
ID                             : 4
Format                         : AC-3
Format/Info                    : Audio Coding 3
Mode extension                 : CM (complete main)
Format settings, Endianness    : Big
Codec ID                       : A_AC3
Duration                       : 1h 38mn
Bit rate mode                  : Constant
Bit rate                       : 448 Kbps
Channel(s)                     : 6 channels
Channel positions              : Front: L C R, Side: L R, LFE
Sampling rate                  : 48.0 KHz
Frame rate                     : 31.250 fps (1536 spf)
Compression mode               : Lossy
Stream size                    : 317 MiB (14%)
Title                          : 5.1 @ 448 kbps - Original
Language                       : English
Default                        : No
Forced                         : No

Audio #4
ID                             : 5
Format                         : Vorbis
Format settings, Floor         : 1
Codec ID                       : A_VORBIS
Duration                       : 1h 38mn
Bit rate mode                  : Variable
Bit rate                       : 80.0 Kbps
Channel(s)                     : 2 channels
Sampling rate                  : 48.0 KHz
Frame rate                     : 58.378 fps (822 spf)
Compression mode               : Lossy
Stream size                    : 49.4 MiB (2%)
Title                          : OGG 2.0 @ ~80 kbps - Commentary
Writing library                : libVorbis 1.1.1/1.1.2 (UTC 2005-03-04)
Language                       : English
Default                        : No
Forced                         : No

Text #1
ID                             : 6
Format                         : UTF-8
Codec ID                       : S_TEXT/UTF8
Codec ID/Info                  : UTF-8 Plain Text
Duration                       : 1h 33mn
Bit rate                       : 64 bps
Count of elements              : 780
Stream size                    : 43.7 KiB (0%)
Title                          : Full by ninenine
Language                       : Ukrainian
Default                        : No
Forced                         : No

Text #2
ID                             : 7
Format                         : UTF-8
Codec ID                       : S_TEXT/UTF8
Codec ID/Info                  : UTF-8 Plain Text
Duration                       : 1h 33mn
Bit rate                       : 35 bps
Count of elements              : 898
Stream size                    : 24.1 KiB (0%)
Title                          : Full
Language                       : English
Default                        : No
Forced                         : No
Цитата:
Подяки:
За запис з ТБ: Sando7, ratbol, POMEO, krigg070
за синхронізацію: patriot2305, krigg070
за субтитри: ninenine
за постер: Zubr139


Джерело:
Особиста оцінка: 8 - мені сподобалося


 Трекер:    Зареєстрований   

Завантажити / скачати фільм українською



відео для новачків



 Зареєстрований:   2016-12-20 14:46
 Розмір:   2.19 GB 
 Оцінка фільму:   8.1/10 (Голосів: 31)
   
Інші релізи
   Трикутник / Triangle (2009) 1080p 2xUkr/Eng | sub Ukr/Eng IronBee  5 / 0   11.98 GB   2017-06-27 21:29 
   Трикутник / Triangle (2009) [MP4, 640x] apvAltisimo  0 / 0   659 MB   2016-12-27 19:27 
   Трикутник / Triangle (2009) 720p Ukr/Eng | sub Ukr/Eng ninenine  4 / 0   5.69 GB   2013-10-27 11:08 
   Трикутник / Triangle (2009) patriot2305  2 / 0   1.38 GB   2013-10-26 18:15 
Bod_zik99 
VIP


З нами з: 28.12.13
Востаннє: 20.07.17
Повідомлень: 1167

2016-12-20 14:49  
Дуже крутий фільм!
leicheman 
Відео Гуртом - підтримка та поширення
Відео Гуртом - підтримка та поширення


З нами з: 03.07.14
Востаннє: 20.07.17
Повідомлень: 1001

2016-12-20 16:30  
О, тільки но згадав його , та думав передивитися. Дякую за нове озвучення.
Varlemond 
Частий відвідувач


З нами з: 03.06.12
Востаннє: 20.07.17
Повідомлень: 26

2016-12-21 01:06  
фільм не вартий уваги...
olegderim 
VIP


З нами з: 08.02.11
Востаннє: 21.07.17
Повідомлень: 459

2016-12-21 23:37  
Шикарний горор. Треба передивитися.
Endryss 
Новенький


З нами з: 27.02.10
Востаннє: 12.07.17
Повідомлень: 3

2016-12-25 17:43  
Неочікаваний. Постійно тримає в увазі. І коли все стає на свої місця, сюжет знову повертає.
7\10

aSdGir 
Новенький


З нами з: 09.04.11
Востаннє: 20.07.17
Повідомлень: 19

2017-01-05 04:16  
Чудовий фільм. Своєрідна відповідь на питання, чому Сізіф качав свій камінь вічно, і не міг його кинути.

Доречі хоррору тут немає, і як на мене це добре, бо не прихильник такого жанру.

Arsenfpu 
Відео Гуртом - фільмокрай
Відео Гуртом - фільмокрай


З нами з: 30.04.09
Востаннє: 21.07.17
Повідомлень: 2225

2017-03-28 22:16  
Новий показував озвучку НЛО
BatenkoBMW 
Новенький


З нами з: 23.12.12
Востаннє: 18.07.17
Повідомлень: 18

2017-04-03 15:23  
Як на мене, сюжет ніякий. Ніякої кульмінації і розв'язки... 3\10.
Victor_Scythian 
Частий відвідувач


З нами з: 06.01.17
Востаннє: 20.07.17
Повідомлень: 41

2017-04-08 05:01  
Це повне лайно...
Яка напруга? Який крутий фільм? Де взагалі гра акторів?
1. Спочатку якась вівця 30 хвилин ходить із виразом "я накурилася в хлам".
2 Капітан яхти - не знає що ТАКЕ ШТОРМ!!!! Що треба терміново згорнути вітрила та задраїти яхту.
3. Весь корабель завалений трупами, але ніхто не відчуває жахливого смороду і трупного амбре...
Коротше не фільм, а повне ЛАЙНО...

Maters 
VIP


З нами з: 27.03.12
Востаннє: 20.07.17
Повідомлень: 1267

2017-06-26 22:30  
Я теж зовсім не відчув напруги і трохи нудився, коли постійно переглядав ті самі сцени. Як на мене, то трохи перемужрили ((
5,5/10

Lyolic 
Частий відвідувач


З нами з: 04.08.09
Востаннє: 20.07.17
Повідомлень: 42

2017-06-29 00:14  
Бачу, фільмєц не для всіх )))
Особисто я жалкую, що не побачив його 8 років тому... Зараз би ще раз переглянув.

PS Дійсно, до чого тут жахи? Жахів тут немає. Зовсім.

Electroz 
Відео Гуртом - підтримка та поширення
Відео Гуртом - підтримка та поширення


З нами з: 18.09.14
Востаннє: 21.07.17
Повідомлень: 1437

2017-06-29 00:19  
Lyolic написано:
Дійсно, до чого тут жахи? Жахів тут немає

На imdb жанри: фантастика, містика, трилер

Lyolic 
Частий відвідувач


З нами з: 04.08.09
Востаннє: 20.07.17
Повідомлень: 42

2017-06-29 00:26  
Electroz
О, норм Happy
Але тут в описі "жахи". Та ще й якась "велікобританія"... До чого тут вєліки? Happy

Ваш часовий пояс: GMT + 2 Години

Нова тема   Відповісти