Сортування / Triage (2009) 1080p Ukr/Eng | Sub Eng

Нові коментарі

Нова тема   Відповісти
Останній раз роздавалося Olya2 (2017-12-16)
Автор Повідомлення
staf777 
Відео Гуртом - підтримка та поширення
Відео Гуртом - підтримка та поширення


З нами з: 16.11.16
Востаннє: 06.11.17
Повідомлень: 522

2016-12-20 12:17  
Сортування / Triage (2009) 1080p Ukr/Eng | Sub Eng

Сортування / Triage (2009) 1080p Ukr/Eng | Sub Eng


Жанр: драма, детектив, військовий
Країна: Франція, Іспанія, Ірландія, Бельгія



Кінокомпанія: Parallel Film Productions, Asap Films, Freeform Spain
Режисер: Даніс Танович / Danis Tanovic
Актори: Колін Фаррелл / Colin Farrell, Джеймі Сівз / Jamie Sives, Паз Веґа / Paz Vega, Келлі Рейлі / Kelly Reilly, Бранко Джурич / Branko Djuric, Мозаффарі Шафейе / Mozaffar Shafeie, Каржан Шерабаяні / Kae Bahar (as Karzan Sherabayani), Луіс Кальєхо / Luis Callejo, Алекс Спійксма / Alex Spijksma, Йен МакЕлхінні / Ian McElhinney, Джульєт Стівенсон / Juliet Stevenson, Мішель Хартман / Michelle Hartman, Ейлін Волш / Eileen Walsh, Нік Даннінг / Nick Dunning, Крістофер Лі / Christopher Lee, Ріс Річі / Reece Ritchie та інші

Сюжет:
Два нерозлучних друга, що працюють фотокореспондентами у гарячих точках, готові ризикувати своїми життями заради сенсаційних матеріалів. Головне, не переступати ту межу, за якою вже немає вороття назад...
Відправившись на чергове завдання в охоплений війною Курдистан, вони потрапляють до польового шпиталю, де стають свідками жорстокого і цинічного "сортування" поранених - важких "лікують" пострілами в голову, а решту намагаються поставити на ноги.
Приголомшені тим, що відбувається, друзі вирішують відкласти своє повернення додому і продовжити роботу. Вони ще не знають, яке тяжке випробування їх чекає та яку страшну ціну доведеться заплатити за свій останній репортаж...

Рейтинг MPAA: R - особам до 17 років обов'язкова присутність батьків або дорослого опікуна
Вікова категорія: 16+


Тривалість: 01:39:36
Якість:
Відео:
кодек:
розмір кадру: 1920x816
бітрейт: 11500 кб/с

Аудіо # 1:
мова: українська
переклад: багатоголосий закадровий
кодек: 2.0
бітрейт: 192 кб/с

Аудіо # 2:
мова: англійська
переклад: оригінал
кодек: 5.1
бітрейт: 1509 кб/с

Субтитри:
мова: англійська
тип: програмні (м'які)
формат: *.srt
Info
General
Unique ID : 211763082716677759278744793302045721335 (0x9F501611FD02FA0E9B6BE718DF7E82F7)
Complete name : J:\» HD українською » Фільми в HD\Драма\Triage (2009) 1080p.
Format :
Format version : Version 4 / Version 2
File size : 9.18 GiB
Duration : 1h 39mn
Overall bit rate : 13.2 Mbps
Movie name : Triage (2009) 1080p
Encoded date : UTC 2016-12-21 09:59:34
Writing application : mkvmerge v9.5.0 ('Quiet Fire') 64bit
Writing library : libebml v1.3.4 + libmatroska v1.4.5
Attachements : cover.jpg

Video
ID : 1
Format : AVC
Format/Info : Advanced Video Codec
Format profile : [email protected]
Format settings, CABAC : Yes
Format settings, ReFrames : 5 frames
Codec ID : V_MPEG4/ISO/AVC
Duration : 1h 39mn
Bit rate : 11.5 Mbps
Width : 1 920 pixels
Height : 816 pixels
Display aspect ratio : 2.35:1
Frame rate mode : Constant
Frame rate : 24.000 fps
Color space : YUV
Chroma subsampling : 4:2:0
Bit depth : 8 bits
Scan type : Progressive
Bits/(Pixel*Frame) : 0.306
Stream size : 7.99 GiB (87%)
Title : Triage (2009) 1080p
Writing library : core 148 r2705+54 9f484c1 t_mod_Custom [[email protected] X86_64]
Encoding settings : cabac=1 / ref=5 / deblock=1:-3:-3 / analyse=0x3:0x133 / me=esa / subme=9 / psy=1 / fade_compensate=0.00 / psy_rd=1.10:0.05 / mixed_ref=1 / me_range=48 / chroma_me=1 / trellis=2 / 8x8dct=1 / cqm=0 / deadzone=21,11 / fast_pskip=0 / chroma_qp_offset=-3 / threads=6 / lookahead_threads=1 / sliced_threads=0 / nr=0 / decimate=1 / interlaced=0 / bluray_compat=0 / constrained_intra=0 / fgo=0 / bframes=8 / b_pyramid=2 / b_adapt=2 / b_bias=0 / direct=3 / weightb=1 / open_gop=0 / weightp=2 / keyint=250 / keyint_min=23 / scenecut=40 / intra_refresh=0 / rc=2pass / mbtree=0 / bitrate=11500 / ratetol=1.0 / qcomp=0.70 / qpmin=0:0:0 / qpmax=69:69:69 / qpstep=4 / cplxblur=20.0 / qblur=0.5 / ip_ratio=1.30 / pb_ratio=1.20 / aq=1:0.65 / aq-sensitivity=10.00 / aq-factor=1.00:1.00:1.00 / aq2=1:0.60 / aq2-sensitivity=15.00 / aq2-factor=1.00:1.00:1.00 / aq3=1:[0.50:0.50]:[0.50:0.50]:[0.50:0.50]:[0.50:0.50] / aq3-sensitivity=10.00 / aq3-factor=[1.00:1.00]:[1.00:1.00]:[1.00:1.00] / aq3-boundary=192:64:24
Language : English
Default : Yes
Forced : No
Color range : Limited
Matrix coefficients : BT.709

Audio #1
ID : 2
Format : AC-3
Format/Info : Audio Coding 3
Mode extension : CM (complete main)
Format settings, Endianness : Big
Codec ID : A_AC3
Duration : 1h 39mn
Bit rate mode : Constant
Bit rate : 192 Kbps
Channel(s) : 2 channels
Channel positions : Front: L R
Sampling rate : 48.0 KHz
Frame rate : 31.250 fps (1536 spf)
Compression mode : Lossy
Stream size : 137 MiB (1%)
Title : [UA-MVO] [TОНIC], 2/0 (L,R) ch, ~192 kbps
Language : Ukrainian
Default : Yes
Forced : Yes

Audio #2
ID : 3
Format :
Format/Info : Digital Theater Systems
Format profile : ES Matrix / Core
Mode : 16
Format settings, Endianness : Big
Codec ID : A_DTS
Duration : 1h 39mn
Bit rate mode : Constant
Bit rate : 1 509 Kbps
Channel(s) : 7 channels / 6 channels
Channel positions : Front: L C R, Side: L R, Back: C, LFE / Front: L C R, Side: L R, LFE
Sampling rate : 48.0 KHz
Frame rate : 93.750 fps (512 spf)
Bit depth : 16 bits
Compression mode : Lossy
Stream size : 1.05 GiB (11%)
Title : English: 48 kHz, -ES, 3/3 (L,C,R,l,c,r) + LFE ch, ~1509.00 kbps
Language : English
Default : No
Forced : No

Text
ID : 4
Format : UTF-8
Codec ID : S_TEXT/UTF8
Codec ID/Info : UTF-8 Plain Text
Duration : 1h 28mn
Bit rate : 49 bps
Count of elements : 1027
Stream size : 32.0 KiB (0%)
Language : English
Default : No
Forced : No
Скріншоти




Джерело: &
Особиста оцінка: 0 - не дивився
українська доріжка - Vasua95 - зведення, POMEO - запис з ТБ;


 Трекер:    Зареєстрований   

Завантажити / скачати фільм українською



відео для новачків



 Зареєстрований:   2016-12-21 12:48
 Розмір:   9.18 GB 
 Оцінка фільму:   7/10 (Голосів: 3)
   
Інші релізи
   Сортування / Triage (2009) 720p Ukr/Eng | Sub Eng igor911  2 / 0   5.11 GB   2013-11-05 21:46 
   Сортування / Triage (2009) AngryBirdsUA  3 / 0   1.45 GB   2013-11-03 18:19 
Ваш часовий пояс: GMT + 2 Години

Нова тема   Відповісти