Війна наречених / Bride Wars (2009) Remux 1080p Ukr/Eng | Sub Ukr/Eng

Нові коментарі

Нова тема   Відповісти
Останній раз роздавалося tzapik (2017-10-23)
Автор Повідомлення
staf777 
Відео Гуртом - підтримка та поширення
Відео Гуртом - підтримка та поширення


З нами з: 16.11.16
Востаннє: 22.10.17
Повідомлень: 522

2016-12-19 20:45  
Війна наречених / Bride Wars (2009) Remux 1080p Ukr/Eng | Sub Ukr/Eng

Війна наречених / Bride Wars (2009) Remux 1080p Ukr/Eng | Sub Ukr/Eng


Жанр: комедія, мелодрама
Країна: США



Кінокомпанія: Firm Films / Regency Enterprises
Режисер: Гарі Вінік
Актори: Кейт Гадсон / Kate Hudson, Ен Гетевей / Anne Hathaway, Брайан Ґрінберґ / Bryan Greenberg, Кріс Претт / Chris Pratt, Стів Гові / Steve Howey, Кендіс Берґен / Candice Bergen, Крістен Джонстон / Kristen Johnston, Майкл Арден / Michael Arden, Віктор Слезак / Victor Slezak, Келлі Коффілд / Kelly Coffield та інші

Сюжет:
Дружба Еми та Лів скінчилась, коли вони призначили свої весілля на один день. Ніхто не хоче поступатися подружці, і погуляти спочатку у неї, а потім закотити бенкет самій. Дівчата починають відчайдушну конкуренцію за місце проведення весілля, гостей і послуги, що надаються, не бажаючи ні в чому поступатися суперниці.


Тривалість: 01:28:57
Якість: Remux 1080p
Відео:
кодек:
розмір кадру: 1920x1080
бітрейт: 27000 кб/с

Аудіо # 1:
мова: українська
переклад: професійний дубльований
кодек: 5.1
бітрейт: 768 кб/с

Аудіо # 2:
мова: англійська
переклад: оригінал
кодек: -HD MA 5.1
бітрейт: 3565 кб/с

Аудіо # 3:
мова: англійська
переклад: оригінал
кодек: 5.1
бітрейт: 448 кб/с

Субтитри:
мова: українська
тип: пререндерні
формат: PGS

Субтитри:
мова: англійська
тип: пререндерні
формат: PGS
Info
General
Unique ID : 246986318314491556074696958121200667373 (0xB9CFD5AA48CE3402A2A9AEBDB6E54AED)
Complete name : E:\HDCLUB\Bride Wars (2009) Remux 1080p [Hurtom].
Format :
Format version : Version 4 / Version 2
File size : 19.7 GiB
Duration : 1h 28mn
Overall bit rate mode : Variable
Overall bit rate : 31.8 Mbps
Movie name : Bride Wars (2009) Remux 1080p [Hurtom]
Encoded date : UTC 2016-12-21 11:11:35
Writing application : mkvmerge v9.5.0 ('Quiet Fire') 64bit
Writing library : libebml v1.3.4 + libmatroska v1.4.5
Attachements : cover.jpg..jpg

Video
ID : 1
Format : AVC
Format/Info : Advanced Video Codec
Format profile : High@L4.1
Format settings, CABAC : Yes
Format settings, ReFrames : 2 frames
Codec ID : V_MPEG4/ISO/AVC
Duration : 1h 28mn
Bit rate mode : Variable
Bit rate : 27.0 Mbps
Width : 1 920 pixels
Height : 1 080 pixels
Display aspect ratio : 16:9
Frame rate mode : Constant
Frame rate : 23.976 (24000/1001) fps
Color space : YUV
Chroma subsampling : 4:2:0
Bit depth : 8 bits
Scan type : Progressive
Bits/(Pixel*Frame) : 0.542
Stream size : 16.8 GiB (85%)
Title : Bride Wars (2009) Remux 1080p
Default : Yes
Forced : No

Audio #1
ID : 2
Format :
Format/Info : Digital Theater Systems
Mode : 16
Format settings, Endianness : Big
Codec ID : A_DTS
Duration : 1h 28mn
Bit rate mode : Constant
Bit rate : 768 Kbps
Channel(s) : 6 channels
Channel positions : Front: L C R, Side: L R, LFE
Sampling rate : 48.0 KHz
Frame rate : 93.750 fps (512 spf)
Bit depth : 24 bits
Compression mode : Lossy
Stream size : 489 MiB (2%)
Title : [UA-DUB] 5.1 (768 kbps)
Language : Ukrainian
Default : Yes
Forced : Yes

Audio #2
ID : 3
Format :
Format/Info : Digital Theater Systems
Format profile : MA / Core
Mode : 16
Format settings, Endianness : Big
Codec ID : A_DTS
Duration : 1h 28mn
Bit rate mode : Variable / Constant
Bit rate : 3 565 Kbps / 1 509 Kbps
Channel(s) : 6 channels
Channel positions : Front: L C R, Side: L R, LFE
Sampling rate : 48.0 KHz
Frame rate : 93.750 fps (512 spf)
Bit depth : 24 bits
Compression mode : Lossless / Lossy
Stream size : 2.22 GiB (11%)
Title : -HD MA 5.1 3565
Language : English
Default : No
Forced : No

Audio #3
ID : 4
Format : AC-3
Format/Info : Audio Coding 3
Mode extension : CM (complete main)
Format settings, Endianness : Big
Codec ID : A_AC3
Duration : 1h 28mn
Bit rate mode : Constant
Bit rate : 448 Kbps
Channel(s) : 6 channels
Channel positions : Front: L C R, Side: L R, LFE
Sampling rate : 48.0 KHz
Frame rate : 31.250 fps (1536 spf)
Compression mode : Lossy
Stream size : 285 MiB (1%)
Title : Dolby Digital 5.1 448 kbps
Language : English
Default : No
Forced : No

Text #1
ID : 5
Format : PGS
Muxing mode : zlib
Codec ID : S_HDMV/PGS
Codec ID/Info : Picture based subtitle format used on BDs/HD-DVDs
Duration : 1h 23mn
Bit rate : 17.6 Kbps
Count of elements : 2626
Stream size : 10.5 MiB (0%)
Language : Ukrainian
Default : Yes
Forced : No

Text #2
ID : 6
Format : PGS
Muxing mode : zlib
Codec ID : S_HDMV/PGS
Codec ID/Info : Picture based subtitle format used on BDs/HD-DVDs
Duration : 1h 22mn
Bit rate : 20.6 Kbps
Count of elements : 2693
Stream size : 12.2 MiB (0%)
Language : English
Default : No
Forced : No
Скріншоти



Джерело: &


Золотий реліз (завантажене не впливає на рейтинг)
 Трекер:    Зареєстрований   

Завантажити / скачати фільм українською



відео для новачків



 Зареєстрований:   2016-12-21 15:12
 Розмір:   19.75 GB 
 Оцінка фільму:   6.5/10 (Голосів: 6)
   
Інші релізи
   Війни наречених / Bride Wars (2009) Ukr/Eng | Sub Ukr/Eng karvai0  7 / 1   1.73 GB   2014-03-18 20:13 
   Війна наречених / Bride Wars (2009) 720p Ukr/Eng | Sub Ukr/Eng DiGen  2 / 0   4.31 GB   2010-04-09 04:00 
   Війни наречених / Bride wars (2009) DVD5 Romczyk  0 / 0   3.57 GB   2009-03-20 00:07 
IRONHIDE 
Свій


З нами з: 06.08.10
Востаннє: 23.10.17
Повідомлень: 148

2016-12-21 18:01  
Дякую за реліз!
taksist 
Поважний учасник


З нами з: 10.12.12
Востаннє: 24.10.17
Повідомлень: 161

2016-12-21 22:32  
Хетеуей=українською Гетевей.
соромно не знати.

Ваш часовий пояс: GMT + 2 Години

Нова тема   Відповісти