Скарб нації: Дилогія / National Treasure: Dilogy (2004/2007) Remux 1080p 2xUkr/Eng | Sub Ukr/Eng

Нові коментарі

Нова тема   Відповісти
Автор Повідомлення
Anonymous 







2016-12-19 17:39  
Скарб нації: Дилогія / National Treasure: Dilogy (2004/2007) Remux 2xUkr/Eng | Sub Ukr/Eng

Скарб нації: Дилогія / National Treasure: Dilogy (2004/2007) Remux 1080p 2xUkr/Eng | Sub Ukr/Eng
Скарб нації / National Treasure (2004) Remux 2xUkr/Eng | Sub Ukr/Eng

Скарб нації / National Treasure (2004) Remux 2xUkr/Eng | Sub Ukr/Eng

Скарб нації: Дилогія / National Treasure: Dilogy (2004/2007) Remux 1080p 2xUkr/Eng | Sub Ukr/Eng

Жанр: екшн, комедія, детектив, пригодницький, сімейний
Країна: США



Кінокомпанія: Walt Disney Pictures, Jerry Bruckheimer Films, Junction Entertainment
Режисер: Джон Тартелтауб / Jon Turteltaub
Актори: Ніколас Кейдж / Nicolas Cage, Дайан Крюґер / Diane Kruger, Джастін Барта / Justin Bartha, Шон Бін / Sean Bean, Джон Войт / Jon Voight, Гарві Кейтель / Harvey Keitel, Крістофер Пламмер / Christopher Plummer, Девід Дайан Фішер / David Dayan Fisher та інші

Сюжет:
Сучасні мисливці за скарбами на чолі з Беном Франкліном Ґейтсом дізнаються старовинну легенду про скарб, захований ще батьками-засновниками американської держави Джорджем Вашингтоном, Бенджаміном Франкліном і Томасом Джефферсоном.
Дізнатися таємницю кладу можна за допомогою Декларації Незалежності США, в якій зашифрована розгадка. Але крім розгадування витонченої головоломки, нашим героям належить битися з любителями легкої наживи, спраглим погріти руки на надбанні республіки ...


Тривалість: 02:11:06
Якість: Remux
Відео:
кодек:
розмір кадру: 1920x1080
бітрейт: 22411 kbps

Аудіо # 1:
мова: українська
переклад: багатоголосий закадровий
кодек: 2.0
бітрейт: ~224 кб/с
Джерело озвучення:


Аудіо # 2:
мова: українська
переклад: багатоголосий закадровий
кодек: 2.0
бітрейт: ~192 кб/с
Джерело озвучення:


Аудіо # 3:
мова: англійська
переклад: оригінал
кодек: Dolby TrueHD 5.1
бітрейт: ~1650 кб/с

Субтитри # 1:
мова: українська
тип: пререндерні
формат: *.pgs

Субтитри # 2:
мова: англійська
тип: пререндерні
формат: *.pgs
Info

General
Unique ID : 248304928570224335863666393481421744795 (0xBACDCA2B905DF2CBDE9F4AF842436A9B)
Format :
Format version : Version 4 / Version 2
File size : 22.5 GiB
Duration : 2h 11mn
Overall bit rate mode : Variable
Overall bit rate : 24.6 Mbps
Encoded date : UTC 2016-12-21 20:50:18
Writing application : mkvmerge v7.3.0 ('Nouages') 64bit built on Oct 23 2014 13:14:01
Writing library : Lavf56.1.0
DURATION : 02:11:04.512000000
NUMBER_OF_FRAMES : 245766
NUMBER_OF_BYTES : 188748288
_STATISTICS_WRITING_DATE_UTC : 2016-12-21 20:50:18
_STATISTICS_TAGS : BPS DURATION NUMBER_OF_FRAMES NUMBER_OF_BYTES

Video
ID : 1
Format : AVC
Format/Info : Advanced Video Codec
Format profile : [email protected]
Format settings, CABAC : Yes
Format settings, ReFrames : 4 frames
Codec ID : V_MPEG4/ISO/AVC
Duration : 2h 11mn
Bit rate mode : Variable
Maximum bit rate : 33.5 Mbps
Width : 1 920 pixels
Height : 1 080 pixels
Display aspect ratio : 16:9
Frame rate mode : Constant
Frame rate : 23.976 fps
Standard : NTSC
Color space : YUV
Chroma subsampling : 4:2:0
Bit depth : 8 bits
Scan type : Progressive
Default : No
Forced : No
Color primaries : BT.709
Transfer characteristics : BT.709
Matrix coefficients : BT.709
DURATION : 02:11:01.467000000
NUMBER_OF_FRAMES : 188559
NUMBER_OF_BYTES : 22031885618
_STATISTICS_WRITING_DATE_UTC : 2016-12-21 20:50:18
_STATISTICS_TAGS : BPS DURATION NUMBER_OF_FRAMES NUMBER_OF_BYTES

Audio #1
ID : 2
Format : AC-3
Format/Info : Audio Coding 3
Mode extension : CM (complete main)
Format settings, Endianness : Big
Codec ID : A_AC3
Duration : 2h 11mn
Bit rate mode : Constant
Bit rate : 224 Kbps
Channel(s) : 2 channels
Channel positions : Front: L R
Sampling rate : 48.0 KHz
Bit depth : 16 bits
Compression mode : Lossy
Stream size : 210 MiB (1%)
Language : Ukrainian
Default : No
Forced : No
DURATION : 02:11:03.043000000
NUMBER_OF_FRAMES : 245813
NUMBER_OF_BYTES : 220248448
_STATISTICS_WRITING_DATE_UTC : 2016-12-21 20:50:18
_STATISTICS_TAGS : BPS DURATION NUMBER_OF_FRAMES NUMBER_OF_BYTES

Audio #2
ID : 3
Format : AC-3
Format/Info : Audio Coding 3
Mode extension : CM (complete main)
Format settings, Endianness : Big
Codec ID : A_AC3
Duration : 2h 11mn
Bit rate mode : Constant
Bit rate : 192 Kbps
Channel(s) : 2 channels
Channel positions : Front: L R
Sampling rate : 48.0 KHz
Bit depth : 16 bits
Compression mode : Lossy
Delay relative to video : -42ms
Stream size : 180 MiB (1%)
Language : Ukrainian
Default : No
Forced : No
DURATION : 02:11:01.508000000
NUMBER_OF_FRAMES : 9437378
NUMBER_OF_BYTES : 1621771232
_STATISTICS_WRITING_DATE_UTC : 2016-12-21 20:50:18
_STATISTICS_TAGS : BPS DURATION NUMBER_OF_FRAMES NUMBER_OF_BYTES

Audio #3
ID : 4
Format : TrueHD
Codec ID : A_TRUEHD
Duration : 2h 11mn
Bit rate mode : Variable
Maximum bit rate : 3 069 Kbps
Channel(s) : 6 channels
Channel positions : Front: L C R, Side: L R, LFE
Sampling rate : 48.0 KHz
Compression mode : Lossless
Language : Ukrainian
Default : No
Forced : No
DURATION : 02:00:15.297000000
NUMBER_OF_FRAMES : 11448
NUMBER_OF_BYTES : 5768183
_STATISTICS_WRITING_DATE_UTC : 2016-12-21 20:50:18
_STATISTICS_TAGS : BPS DURATION NUMBER_OF_FRAMES NUMBER_OF_BYTES

Text #1
ID : 5
Format : PGS
Muxing mode : zlib
Codec ID : S_HDMV/PGS
Codec ID/Info : The same subtitle format used on BDs/HD-DVDs
Language : Ukrainian
Default : No
Forced : No
DURATION : 01:59:23.298000000
NUMBER_OF_FRAMES : 12295
NUMBER_OF_BYTES : 8428791
_STATISTICS_WRITING_DATE_UTC : 2016-12-21 20:50:18
_STATISTICS_TAGS : BPS DURATION NUMBER_OF_FRAMES NUMBER_OF_BYTES

Text #2
ID : 6
Format : PGS
Muxing mode : zlib
Codec ID : S_HDMV/PGS
Codec ID/Info : The same subtitle format used on BDs/HD-DVDs
Language : English
Default : No
Forced : No
Скріншоти



Скарб нації: Книга Таємниць / National Treasure: Book of Secrets (2007) Remux 2xUkr/Eng | Sub Ukr/Eng

Скарб нації: Книга Таємниць / National Treasure: Book of Secrets (2007) Remux 2xUkr/Eng | Sub Ukr/Eng

Альтернативний український постер


Жанр: екшн, комедія, детектив, пригодницький, сімейний
Країна: США



Кінокомпанія: Walt Disney Pictures, Jerry Bruckheimer Films, Junction Entertainment
Режисер: Джон Тартелтауб / Jon Turteltaub
Актори: Ніколас Кейдж / Nicolas Cage, Дайан Крюґер / Diane Kruger, Джастін Барта / Justin Bartha, Джон Войґт / Jon Voight, Гелен Мірен / Helen Mirren, Ед Гарріс / Ed Harris, Брюс Ґрінвуд / Bruce Greenwood, Алісія Коппола / Alicia Coppola, Гарві Кейтел / Harvey Keitel та інші

Сюжет:
Мисливець за скарбами Бен Ґейтс виявляє таємницю, розгадка якої може привести до перегляду всієї історії США. Він відправляється на пошуки зниклих 18 сторінок з щоденника Джона Вілкса, вбивці Авраама Лінкольна.


Тривалість: 02:04:32
Якість: Remux
Відео:
кодек:
розмір кадру: 1920x1080
бітрейт: 23245 kbps

Аудіо # 1:
мова: українська
переклад: професійний дубльований
кодек: 5.1
бітрейт: ~384 кб/с


Аудіо # 2:
мова: українська
переклад: багатоголосий закадровий
кодек: 2.0
бітрейт: ~192 кб/с


Аудіо # 3:
мова: англійська
переклад: оригінал
кодек: Dolby TrueHD 5.1
бітрейт: ~1666 кб/с

Субтитри # 1:
мова: українська (форсовані)
тип: пререндерні
формат: *.pgs

Субтитри # 2:
мова: українська (повні)
тип: пререндерні
формат: *.pgs

Субтитри # 3:
мова: англійська
тип: пререндерні
формат: *.pgs
Info

General
Unique ID : 149953193384132299914211288781452135590 (0x70CFEF3DFB092C3D3221C994E762CCA6)
Format :
Format version : Version 4 / Version 2
File size : 22.2 GiB
Duration : 2h 4mn
Overall bit rate mode : Variable
Overall bit rate : 25.6 Mbps
Encoded date : UTC 2016-12-21 21:16:01
Writing application : mkvmerge v7.3.0 ('Nouages') 64bit built on Oct 23 2014 13:14:01
Writing library : Lavf56.1.0
DURATION : 02:04:32.448000000
NUMBER_OF_FRAMES : 233514
NUMBER_OF_BYTES : 179338752
_STATISTICS_WRITING_DATE_UTC : 2016-12-21 21:16:01
_STATISTICS_TAGS : BPS DURATION NUMBER_OF_FRAMES NUMBER_OF_BYTES

Video
ID : 1
Format : AVC
Format/Info : Advanced Video Codec
Format profile : [email protected]
Format settings, CABAC : Yes
Format settings, ReFrames : 2 frames
Codec ID : V_MPEG4/ISO/AVC
Duration : 2h 4mn
Bit rate mode : Variable
Width : 1 920 pixels
Height : 1 080 pixels
Display aspect ratio : 16:9
Frame rate mode : Constant
Frame rate : 23.976 fps
Color space : YUV
Chroma subsampling : 4:2:0
Bit depth : 8 bits
Scan type : Progressive
Default : No
Forced : No
DURATION : 02:04:29.487000000
NUMBER_OF_FRAMES : 179160
NUMBER_OF_BYTES : 21712951888
_STATISTICS_WRITING_DATE_UTC : 2016-12-21 21:16:01
_STATISTICS_TAGS : BPS DURATION NUMBER_OF_FRAMES NUMBER_OF_BYTES

Audio #1
ID : 2
Format : AC-3
Format/Info : Audio Coding 3
Mode extension : CM (complete main)
Format settings, Endianness : Big
Codec ID : A_AC3
Duration : 2h 4mn
Bit rate mode : Constant
Bit rate : 384 Kbps
Channel(s) : 6 channels
Channel positions : Front: L C R, Side: L R, LFE
Sampling rate : 48.0 KHz
Bit depth : 16 bits
Compression mode : Lossy
Stream size : 342 MiB (2%)
Title : 1+1
Language : Ukrainian
Default : No
Forced : No
DURATION : 02:04:29.544000000
NUMBER_OF_FRAMES : 233515
NUMBER_OF_BYTES : 358679040
_STATISTICS_WRITING_DATE_UTC : 2016-12-21 21:16:01
_STATISTICS_TAGS : BPS DURATION NUMBER_OF_FRAMES NUMBER_OF_BYTES

Audio #2
ID : 3
Format : AC-3
Format/Info : Audio Coding 3
Mode extension : CM (complete main)
Format settings, Endianness : Big
Codec ID : A_AC3
Duration : 2h 4mn
Bit rate mode : Constant
Bit rate : 192 Kbps
Channel(s) : 2 channels
Channel positions : Front: L R
Sampling rate : 48.0 KHz
Bit depth : 16 bits
Compression mode : Lossy
Delay relative to video : -42ms
Stream size : 171 MiB (1%)
Title : Новий
Language : Ukrainian
Default : No
Forced : No
DURATION : 02:04:29.528000000
NUMBER_OF_FRAMES : 8966958
NUMBER_OF_BYTES : 1555777830
_STATISTICS_WRITING_DATE_UTC : 2016-12-21 21:16:01
_STATISTICS_TAGS : BPS DURATION NUMBER_OF_FRAMES NUMBER_OF_BYTES

Audio #3
ID : 4
Format : TrueHD
Codec ID : A_TRUEHD
Duration : 2h 4mn
Bit rate mode : Variable
Maximum bit rate : 2 970 Kbps
Channel(s) : 6 channels
Channel positions : Front: L C R, Side: L R, LFE
Sampling rate : 48.0 KHz
Compression mode : Lossless
Title : Blu Ray
Language : Ukrainian
Default : No
Forced : No
DURATION : 01:58:17.196000000
NUMBER_OF_FRAMES : 12008
NUMBER_OF_BYTES : 5998799
_STATISTICS_WRITING_DATE_UTC : 2016-12-21 21:16:01
_STATISTICS_TAGS : BPS DURATION NUMBER_OF_FRAMES NUMBER_OF_BYTES

Text #1
ID : 5
Format : PGS
Muxing mode : zlib
Codec ID : S_HDMV/PGS
Codec ID/Info : The same subtitle format used on BDs/HD-DVDs
Language : Ukrainian
Default : No
Forced : No
DURATION : 01:58:17.196000000
NUMBER_OF_FRAMES : 312
NUMBER_OF_BYTES : 125507
_STATISTICS_WRITING_DATE_UTC : 2016-12-21 21:16:01
_STATISTICS_TAGS : BPS DURATION NUMBER_OF_FRAMES NUMBER_OF_BYTES

Text #2
ID : 6
Format : PGS
Muxing mode : zlib
Codec ID : S_HDMV/PGS
Codec ID/Info : The same subtitle format used on BDs/HD-DVDs
Language : Ukrainian
Default : No
Forced : No
DURATION : 01:55:37.005000000
NUMBER_OF_FRAMES : 11624
NUMBER_OF_BYTES : 5729599
_STATISTICS_WRITING_DATE_UTC : 2016-12-21 21:16:01
_STATISTICS_TAGS : BPS DURATION NUMBER_OF_FRAMES NUMBER_OF_BYTES

Text #3
ID : 7
Format : PGS
Muxing mode : zlib
Codec ID : S_HDMV/PGS
Codec ID/Info : The same subtitle format used on BDs/HD-DVDs
Language : English
Default : No
Forced : No
Скріншоти



Джерело: &


Золотий реліз (завантажене не впливає на рейтинг)
 Трекер:    Зареєстрований   

Завантажити / скачати фільм українською



відео для новачків



 Зареєстрований:   2016-12-21 23:30
 Розмір:   44.73 GB 
 Оцінка фільму:   10/10 (Голосів: 4)
   
casper101 
Поважний учасник


З нами з: 03.12.09
Востаннє: 17.12.17
Повідомлень: 241

2016-12-19 18:24  
хотілося третьої частини.
Anonymous 







2016-12-19 18:29  
casper101
Як тільки буде, так зразу й додам. А поки що підготовка - пригадати...

staf777 
Відео Гуртом - підтримка та поширення
Відео Гуртом - підтримка та поширення


З нами з: 16.11.16
Востаннє: 06.11.17
Повідомлень: 522

2016-12-22 09:35  
Дякую
AtikiN-DN 
Новенький


З нами з: 08.08.14
Востаннє: 27.11.17
Повідомлень: 15

2016-12-25 13:26  
Чи буде 1080p? Я Remux'и не вантажу, бо забагато місця займаютсь, ріп у 1080p цілком влаштовує.
Anonymous 







2016-12-25 14:41  
Ваш часовий пояс: GMT + 2 Години

Нова тема   Відповісти