Дім дивних дітей Міс Сапсан / Miss Peregrine's Home for Peculiar Children (2016) 1080p 3D [HalfOverUnder] Ukr/Eng | Sub Ukr/Eng

Нові коментарі

Нова тема   Відповісти
Автор Повідомлення
-VipeR- 
VIP


З нами з: 17.07.08
Востаннє: 23.08.17
Повідомлень: 289

2016-12-19 14:29  
Дім дивних дітей Міс Сапсан / Miss Peregrine's Home for Peculiar Children (2016) 1080p 3D [HalfOverUnder] Ukr/Eng | Sub Ukr/Eng

Дім дивних дітей Міс Сапсан / Miss Peregrine's Home for Peculiar Children (2016) 1080p 3D [HalfOverUnder] Ukr/Eng | Sub Ukr/Eng


Жанр: фентезі, драма, пригодницький, сімейний
Країна: США, Велика Британія, Бельгія



Кінокомпанія: Twentieth Century Fox Film Corporation, Chernin Entertainment, Scope Pictures, St. Petersburg Clearwater Film Commission, TSG Entertainment, Tim Burton Productions
Режисер: Тім Бартон / Tim Burton
Актори: Ева Ґрін / Eva Green, Семюел Джексон / Samuel L. Jackson, Аса Баттерфілд / Asa Butterfield, Джуді Денч / Judi Dench, Кім Діккенс / Kim Dickens, Еллісон Дженні / Allison Janney, Елла Пернелл / Ella Purnell, Кріс О’Дауд / Chris O'Dowd, Руперт Еверетт / Rupert Everett, Теренс Стемп / Terence Stamp та інші

Сюжет:
Після смерті улюбленого дідуся Джейк отримує від нього лист з ключами до таємниці, яка об'єднує різні світи й епохи. Тому хлопчик потрапляє до таємничого місця, відомого як "Будинок дивних дітей". Таємничість і загроза посилюються, коли Джейк знайомиться з жителями "Дому" і дізнається про їхні особливі можливості ... і могутніх ворогів. Нарешті Джейк розуміє, що тільки його власні "особливі якості" можуть врятувати нових друзів.


Тривалість: 02:06:55
Якість: 1080p 3D [HalfOverUnder] by Ash61
Відео:
кодек:
розмір кадру: 1920 х 1080
бітрейт: 10.2 Мбіт/с

Аудіо # 1:
мова: українська
переклад: професійний дубльований
кодек: 5.1
бітрейт: 448 кб/с

Аудіо # 2:
мова: англійська
переклад: оригінал
кодек: 5.1
бітрейт: 640 кб/с

Джерело озвучення:


Субтитри (Forced, Full):
мова: українська
тип: програмні (м'які)
формат: *.srt

Субтитри:
мова: англійська
тип: програмні (м'які)
формат: *.srt
Info
Код:
General
Unique ID                      : 186968015967224240113543870675689307596 (0x8CA8BAE52C28CE5797433C740D5A7DCC)
Complete name                  : D:\3D\Художні\Miss Peregrine's (2016) 1080p 3D [Ukr.Eng].
Format                         :
Format version                 : Version 4 / Version 2
File size                      : 10.0 GiB
Duration                       : 2h 6mn
Overall bit rate               : 11.3 Mbps
Movie name                     : Дім Дивних Дітей Міс Сапсан / Miss Peregrine's Home for Peculiar Children (2016) в 3Д
Encoded date                   : UTC 2016-12-12 13:07:21
Writing application            : mkvmerge v8.8.0 ('Wind at my back') 64bit
Writing library                : libebml v1.3.3 + libmatroska v1.4.4
Cover                          : Yes
Attachments                    : cover.jpg

Video
ID                             : 1
Format                         : AVC
Format/Info                    : Advanced Video Codec
Format profile                 : [email protected]
Format settings, CABAC         : Yes
Format settings, ReFrames      : 4 frames
Codec ID                       : V_MPEG4/ISO/AVC
Duration                       : 2h 6mn
Bit rate                       : 10.2 Mbps
Width                          : 1 920 pixels
Height                         : 1 080 pixels
Display aspect ratio           : 16:9
Frame rate mode                : Constant
Frame rate                     : 23.976 (24000/1001) fps
Color space                    : YUV
Chroma subsampling             : 4:2:0
Bit depth                      : 8 bits
Scan type                      : Progressive
Bits/(Pixel*Frame)             : 0.205
Stream size                    : 9.04 GiB (90%)
Title                          : by Ash61
Writing library                : core 146 r2538 121396c
Encoding settings              : cabac=1 / ref=4 / deblock=1:-3:-3 / analyse=0x3:0x113 / me=umh / subme=10 / psy=1 / psy_rd=1.00:0.00 / mixed_ref=1 / me_range=32 / chroma_me=1 / trellis=2 / 8x8dct=1 / cqm=0 / deadzone=21,11 / fast_pskip=1 / chroma_qp_offset=-2 / threads=12 / lookahead_threads=3 / sliced_threads=0 / nr=0 / decimate=1 / interlaced=0 / bluray_compat=0 / constrained_intra=0 / bframes=10 / b_pyramid=2 / b_adapt=2 / b_bias=0 / direct=3 / weightb=1 / open_gop=0 / weightp=2 / keyint=250 / keyint_min=23 / scenecut=40 / intra_refresh=0 / rc_lookahead=60 / rc=crf / mbtree=1 / crf=15.0 / qcomp=0.70 / qpmin=0 / qpmax=69 / qpstep=4 / vbv_maxrate=40000 / vbv_bufsize=30000 / crf_max=0.0 / nal_hrd=none / filler=0 / frame-packing=4 / ip_ratio=1.40 / aq=1:0.70
Language                       : English
Default                        : Yes
Forced                         : No

Audio #1
ID                             : 2
Format                         : AC-3
Format/Info                    : Audio Coding 3
Mode extension                 : CM (complete main)
Format settings, Endianness    : Big
Codec ID                       : A_AC3
Duration                       : 2h 6mn
Bit rate mode                  : Constant
Bit rate                       : 448 Kbps
Channel(s)                     : 6 channels
Channel positions              : Front: L C R, Side: L R, LFE
Sampling rate                  : 48.0 KHz
Frame rate                     : 31.250 fps (1536 spf)
Compression mode               : Lossy
Stream size                    : 407 MiB (4%)
Title                          : Дубляж - BD 3D Eur
Language                       : Ukrainian
Default                        : Yes
Forced                         : Yes

Audio #2
ID                             : 3
Format                         : AC-3
Format/Info                    : Audio Coding 3
Mode extension                 : CM (complete main)
Format settings, Endianness    : Big
Codec ID                       : A_AC3
Duration                       : 2h 6mn
Bit rate mode                  : Constant
Bit rate                       : 640 Kbps
Channel(s)                     : 6 channels
Channel positions              : Front: L C R, Side: L R, LFE
Sampling rate                  : 48.0 KHz
Frame rate                     : 31.250 fps (1536 spf)
Compression mode               : Lossy
Stream size                    : 581 MiB (6%)
Title                          : Original - BD 3D Eur
Language                       : English
Default                        : No
Forced                         : No

Text #1
ID                             : 4
Format                         : UTF-8
Codec ID                       : S_TEXT/UTF8
Codec ID/Info                  : UTF-8 Plain Text
Duration                       : 1h 55mn
Bit rate                       : 1 bps
Count of elements              : 21
Stream size                    : 1.04 KiB (0%)
Title                          : Форсовані (Ash61)
Language                       : Ukrainian
Default                        : No
Forced                         : No

Text #2
ID                             : 5
Format                         : UTF-8
Codec ID                       : S_TEXT/UTF8
Codec ID/Info                  : UTF-8 Plain Text
Duration                       : 2h 5mn
Bit rate                       : 77 bps
Count of elements              : 1412
Stream size                    : 71.4 KiB (0%)
Title                          : Повні (BD Eur)
Language                       : Ukrainian
Default                        : Yes
Forced                         : Yes

Text #3
ID                             : 6
Format                         : UTF-8
Codec ID                       : S_TEXT/UTF8
Codec ID/Info                  : UTF-8 Plain Text
Duration                       : 2h 1mn
Bit rate                       : 48 bps
Count of elements              : 1570
Stream size                    : 43.5 KiB (0%)
Title                          : Full
Language                       : English
Default                        : No
Forced                         : No

Text #4
ID                             : 7
Format                         : UTF-8
Codec ID                       : S_TEXT/UTF8
Codec ID/Info                  : UTF-8 Plain Text
Duration                       : 2h 1mn
Bit rate                       : 53 bps
Count of elements              : 1804
Stream size                    : 47.8 KiB (0%)
Title                          : SDH (BD Eur)
Language                       : English
Default                        : No
Forced                         : No

Menu
00:00:00.000                   : :1
00:03:40.804                   : :2
00:08:38.017                   : :3
00:13:06.828                   : :4
00:15:26.551                   : :5
00:19:47.478                   : :6
00:23:23.652                   : :7
00:27:47.040                   : :8
00:31:06.448                   : :9
00:34:36.783                   : :10
00:39:34.998                   : :11
00:42:42.810                   : :12
00:46:05.638                   : :13
00:48:36.497                   : :14
00:54:16.462                   : :15
00:57:21.480                   : :16
01:02:03.261                   : :17
01:08:20.847                   : :18
01:14:29.006                   : :19
01:18:54.063                   : :20
01:24:15.300                   : :21
01:28:42.442                   : :22
01:33:11.753                   : :23
01:36:29.033                   : :24
01:40:43.788                   : :25
01:46:09.238                   : :26
01:53:35.308                   : :27
02:00:34.394                   : :28
Скріншоти




Джерело: &
Особиста оцінка: 8 - мені сподобалося

Відео для перегляду на 3D обладнанні!


 Трекер:    Зареєстрований   

Завантажити / скачати фільм українською



відео для новачків



 Зареєстрований:   2016-12-19 14:29
 Розмір:   10.01 GB 
 Оцінка фільму:   8.7/10 (Голосів: 7)
   
Wensun 
Свій


З нами з: 20.01.09
Востаннє: 21.08.17
Повідомлень: 76

2016-12-19 17:03  
Шо за швидкість 20 кб/с ??????
-VipeR- 
VIP


З нами з: 17.07.08
Востаннє: 23.08.17
Повідомлень: 289

2016-12-19 18:50  
Wensun
В мене проблеми не має, роздає 6-8 мбіт/c

hetzendorf 
Відео Гуртом - підтримка та поширення
Відео Гуртом - підтримка та поширення


З нами з: 23.07.15
Востаннє: 23.08.17
Повідомлень: 404

2016-12-24 22:07  
Не розумію численних нарікань на цей фільм. Фільм має чітку ідею, розкриває її цілком зрозуміло, сюжет цілісний та непротирічний. Крім того, можемо спостерігати рідкісний для голівудсько-глобальносвітського кінопродукта випадок відсутності притягнутих за вуха різноманітних збочень і мультикульти-толерастії, більш того, натомість єдиний (sic!) негр у фільмі виступає головним лиходієм!

Тож цілком добротна пристойна картина вийшла.
8/10

Ваш часовий пояс: GMT + 2 Години

Нова тема   Відповісти