Донні Дарко / Donnie Darko (2001) 1080p [4K Remastered Unrated Extended Cut] Ukr/Eng | Sub Eng

Нові коментарі

Нова тема   Відповісти
Автор Повідомлення
staf777 
Відео Гуртом - підтримка та поширення
Відео Гуртом - підтримка та поширення


З нами з: 16.11.16
Востаннє: 22.10.17
Повідомлень: 522

2016-12-18 18:23  
Донні Дарко / Donnie Darko (2001) 1080p [4K Remastered Unrated Extended Cut] Ukr/Eng | Sub Eng

Донні Дарко / Donnie Darko (2001) 1080p [4K Remastered Unrated Extended Cut] Ukr/Eng | Sub Eng
Оригінальний постер

Донні Дарко / Donnie Darko (2001) 1080p [4K Remastered Unrated Extended Cut] Ukr/Eng | Sub Eng
Жанр: драма, містика, фантастика
Країна: США



Кінокомпанія: Pandora Cinema, Flower Films, Adam Fields Productions, Gaylord Film
Режисер: Річард Келлі (Richard Kelly)
Актори: Джейк Джілленхол (Jake Gyllenhaal), Джена Мелоун (Jena Malone), Меггі Джілленхол (Maggie Gyllenhaal), Джеймс Дювал (James Duval), Патрік Свейзі (Patrick Swayze), Ноа Вайл (Noah Wyle), Дрю Беррімор (Drew Barrymore), Сет Роген (Seth Rogen), Кетрін Росс (Katharine Ross), Мері Макдоннелл (Mary McDonnell) та інші.

Сюжет:
До своїх 16 років старшокласник Донні вже знає, що таке смерть. Після нещасного випадку, який ледь не коштував йому життя, Донні відкриває в собі здібності змінювати час і долю. Зміни, що сталися з ним, лякають усіх, хто його оточує - батьків, сестер, вчителів, друзів, улюблену дівчину.


Тривалість: 02:13:50
Якість: 1080p
Відео:
кодек:
розмір кадру: 1920x818
бітрейт: 19400 кб/с

Аудіо # 1:
мова: українська
переклад: багатоголосий закадровий
кодек: 5.1
бітрейт: 384 кб/с

Аудіо # 2:
мова: англійська
переклад: оригінал
кодек: 5.1
бітрейт: 1509 кб/с

Аудіо # 3:
мова: англійська
переклад: коментарі
кодек: 2.0
бітрейт: 192 кб/с

Субтитри:
мова: англійська
тип: програмні (м'які)
формат: *.srt

Субтитри:
мова: англійська
тип: програмні (м'які) [SDH]
формат: *.srt
Info
General
Unique ID : 239424314420923180158268685187091168145 (0xB41F72167F03EF05AA2CDC4580327B91)
Complete name : E:\HDCLUB\ Donnie Darko (2001) 1080p [4K Remastered Unrated Extended Cut][Hurtom].
Format :
Format version : Version 4 / Version 2
File size : 20.1 GiB
Duration : 2h 13mn
Overall bit rate : 21.5 Mbps
Movie name : Donnie Darko (2001) 1080p [4K Remastered Unrated Extended Cut][Hurtom]
Encoded date : UTC 2016-12-19 11:26:52
Writing application : mkvmerge v9.5.0 ('Quiet Fire') 64bit
Writing library : libebml v1.3.4 + libmatroska v1.4.5
Attachements : cover.jpg..jpg

Video
ID : 1
Format : AVC
Format/Info : Advanced Video Codec
Format profile : [email protected]
Format settings, CABAC : Yes
Format settings, ReFrames : 5 frames
Codec ID : V_MPEG4/ISO/AVC
Duration : 2h 13mn
Bit rate : 19.4 Mbps
Width : 1 920 pixels
Height : 818 pixels
Display aspect ratio : 2.35:1
Frame rate mode : Constant
Frame rate : 23.976 (24000/1001) fps
Color space : YUV
Chroma subsampling : 4:2:0
Bit depth : 8 bits
Scan type : Progressive
Bits/(Pixel*Frame) : 0.516
Stream size : 18.2 GiB (90%)
Title : Donnie Darko (2001) 1080p [4K Remastered Unrated Extended Cut][Hurtom]
Writing library : core 148 r2721+55 e19946b t_mod_Custom [[email protected] X86_64]
Encoding settings : cabac=1 / ref=5 / deblock=1:-3:-3 / analyse=0x3:0x133 / me=umh / subme=11 / psy=1 / fade_compensate=0.00 / psy_rd=1.14:0.00 / mixed_ref=1 / me_range=32 / chroma_me=1 / trellis=2 / 8x8dct=1 / cqm=0 / deadzone=21,11 / fast_pskip=0 / chroma_qp_offset=-2 / threads=12 / lookahead_threads=3 / sliced_threads=0 / nr=0 / decimate=0 / interlaced=0 / bluray_compat=0 / constrained_intra=0 / fgo=0 / bframes=14 / b_pyramid=2 / b_adapt=2 / b_bias=0 / direct=3 / weightb=1 / open_gop=0 / weightp=2 / keyint=250 / keyint_min=23 / scenecut=40 / intra_refresh=0 / rc_lookahead=60 / rc=crf / mbtree=0 / crf=19.1000 / qcomp=0.65 / qpmin=0:0:0 / qpmax=69:69:69 / qpstep=4 / vbv_maxrate=62500 / vbv_bufsize=78125 / crf_max=0.0 / nal_hrd=none / filler=0 / ip_ratio=1.22 / pb_ratio=1.18 / aq=3:0.56 / aq-sensitivity=10.00 / aq-factor=1.00:1.00:1.00 / aq2=0 / aq3=0
Language : English
Default : Yes
Forced : No

Audio #1
ID : 2
Format : AC-3
Format/Info : Audio Coding 3
Mode extension : CM (complete main)
Format settings, Endianness : Big
Codec ID : A_AC3
Duration : 2h 13mn
Bit rate mode : Constant
Bit rate : 384 Kbps
Channel(s) : 6 channels
Channel positions : Front: L C R, Side: L R, LFE
Sampling rate : 48.0 KHz
Frame rate : 31.250 fps (1536 spf)
Compression mode : Lossy
Stream size : 368 MiB (2%)
Title : [UA-MVO-K1]
Language : Ukrainian
Default : Yes
Forced : Yes

Audio #2
ID : 3
Format :
Format/Info : Digital Theater Systems
Mode : 16
Format settings, Endianness : Big
Codec ID : A_DTS
Duration : 2h 13mn
Bit rate mode : Constant
Bit rate : 1 509 Kbps
Channel(s) : 6 channels
Channel positions : Front: L C R, Side: L R, LFE
Sampling rate : 48.0 KHz
Frame rate : 93.750 fps (512 spf)
Bit depth : 24 bits
Compression mode : Lossy
Stream size : 1.41 GiB (7%)
Title : [Original]
Language : English
Default : No
Forced : No

Audio #3
ID : 4
Format : AC-3
Format/Info : Audio Coding 3
Mode extension : CM (complete main)
Format settings, Endianness : Big
Codec ID : A_AC3
Duration : 2h 13mn
Bit rate mode : Constant
Bit rate : 192 Kbps
Channel(s) : 2 channels
Channel positions : Front: L R
Sampling rate : 48.0 KHz
Frame rate : 31.250 fps (1536 spf)
Compression mode : Lossy
Stream size : 184 MiB (1%)
Title : Commentary with director Richard Kelly and special guest Kevin Smith
Language : English
Default : No
Forced : No

Text #1
ID : 5
Format : UTF-8
Codec ID : S_TEXT/UTF8
Codec ID/Info : UTF-8 Plain Text
Duration : 2h 10mn
Bit rate : 44 bps
Count of elements : 1046
Stream size : 42.3 KiB (0%)
Language : English
Default : No
Forced : No

Text #2
ID : 6
Format : UTF-8
Codec ID : S_TEXT/UTF8
Codec ID/Info : UTF-8 Plain Text
Duration : 2h 13mn
Bit rate : 44 bps
Count of elements : 1103
Stream size : 44.0 KiB (0%)
Title : SDH
Language : English
Default : No
Forced : No
Скріншоти






Джерело: &
Особиста оцінка: 0 - не дивився


Срібний реліз (на рейтинг впливає 50% завантаженого)
 Трекер:    Зареєстрований   

Завантажити / скачати фільм українською



відео для новачків



 Зареєстрований:   2016-12-19 15:48
 Розмір:   20.13 GB 
 Оцінка фільму:   8.5/10 (Голосів: 10)
   
Інші релізи
Bod_zik99 
VIP


З нами з: 28.12.13
Востаннє: 23.10.17
Повідомлень: 1225

2016-12-18 19:03  
Один з найкращих фільмів які існують.
dj-liam 
Свій


З нами з: 30.11.12
Востаннє: 21.10.17
Повідомлень: 58

2016-12-18 19:51  
Справді культовий фільм
[Captain] 
VIP


З нами з: 19.02.12
Востаннє: 23.10.17
Повідомлень: 1838

2016-12-18 19:52  
Фільм неймовірний. От тільки щоб його зрозуміти треба заходити в мережу)
bambulla 
Відео Гуртом - запис з ТБ
Відео Гуртом - запис з ТБ


З нами з: 05.06.12
Востаннє: 22.10.17
Повідомлень: 74

2016-12-18 21:39  
4K Remastered,як це зрозуміти?
[Captain] 
VIP


З нами з: 19.02.12
Востаннє: 23.10.17
Повідомлень: 1838

2016-12-18 21:52  
bambulla
а як розуміти одночасно 1080p і 4K?))

Bod_zik99 
VIP


З нами з: 28.12.13
Востаннє: 23.10.17
Повідомлень: 1225

2016-12-18 22:05  
[Captain]
Ріп 1080 робився з ремастерингу 4K.Все просто.

boroznaya 
VIP


З нами з: 02.11.12
Востаннє: 23.10.17
Повідомлень: 2326

2016-12-19 14:47  
Озвучення повне? Ніхто не планує авішку з ремастерингованого диска?
Vetal01 
Новенький


З нами з: 21.03.14
Востаннє: 14.10.17
Повідомлень: 1

2017-07-05 18:45  
Ех, 2,5% не докачав, плак-плак, хто б повернувся на роздачу
Українець_з_Умані 
Новенький


З нами з: 19.09.10
Востаннє: 22.10.17
Повідомлень: 12

2017-07-25 00:36  
та , ні біса це не 4к....виправте це в назві.
igor911 
Відео Гуртом
Відео Гуртом


З нами з: 18.01.08
Востаннє: 23.10.17
Повідомлень: 7969

2017-07-25 22:35  
Українець_з_Умані, в назві все вірно
staf777 написано:
1080p

Ваш часовий пояс: GMT + 2 Години

Нова тема   Відповісти