Чарівне королівство Лускунчика / The Nutcracker Sweet (2015) 1080p Ukr/Eng

Нові коментарі

Нова тема   Відповісти
Автор Повідомлення
kicyunya 
Відео Гуртом - фільмокрай
Відео Гуртом - фільмокрай


З нами з: 06.01.12
Востаннє: 13.08.17
Повідомлень: 287

2016-12-18 12:54  
Чарівне королівство Лускунчика / The Nutcracker Sweet (2015) 1080p Ukr/Eng

Чарівне королівство Лускунчика / The Nutcracker Sweet (2015) 1080p Ukr/Eng


Жанр: анімація, дитячий, сімейний, пригодницький
Країна: Перу



Кінокомпанія: Aronnax Animation Studios, Verité Entertainment (Voiceover producer)
Режисер: Едуардо Шульдт
Актори: Алісія Сільверстоун, Эдвард Эснер, Дрейк Белл, Карен Страссман, Рік Зеф, Грант Джордж, Венді Лі, Кірк Торнтон

Сюжет:
Дівчинка Марі та її брат Фітц отримують від свого хрещеного святковий подарунок - кумедного і зворушливого дерев'яного Лускунчика. В різдвяну ніч відбудеться диво-магія: оживуть всі іграшки, і "добрі", і "злі"…
Неперевершена музика Чайковського, оригінальний сюжет легендарної казки Гофмана, яскраві персонажі і динамічні події, атмосфера свята, любові і затишку - жодних сумнівів - принесе задоволення представникам всіх поколінь!


Тривалість: 01:16:45
Якість: 1080p
Відео:
кодек:
розмір кадру: 1920 х 1008
бітрейт: 3930 кб/с

Аудіо # 1:
мова: українська
переклад: багатоголосий закадровий
кодек: 2.0
бітрейт: 192 кб/с

Аудіо # 2:
мова: англійська
переклад: оригінал
кодек: 5.1
бітрейт: 384 кб/с

Джерело озвучення:
Багатоголосий закадровий ААА-sound на замовлення Galeon Кіно 2015 рік
Інформація про озвучення:
Український закадровий текст читали: Антоніна Хижняк, Юлія Перенчук, Павло Скороходько, Андрій Альохін, Анатолій Зіновенко, Юрій Ребрик, Олександр Єфімов та інші.
Режисер: Олександр Єфімов
Info
General
Повна назва : The Nutcracker Sweet (2015) 1080p [Hurtom].
Формат :
Версія формату : Version 2
File size : 2.45 GiB
Duration : 1 h 16 min
Overall bit rate mode : Variable
Overall bit rate : 4 589 kb/s
Movie name : Чарівне королівство Лускунчика / The Nutcracker Sweet (2015) 1080p [Hurtom]
Encoded date : UTC 2016-12-19 22:33:12
Writing application : mkvmerge v5.7.0 ('The Whirlwind') built on Jul 10 2012 18:39:26
Writing library : libebml v1.2.3 + libmatroska v1.3.0

Video
ID : 1
Format : AVC
Format/Info : Advanced Video Codec
Format profile : [email protected]
Format settings, CABAC : Yes
Format settings, ReFrames : 3 frames
Codec ID : V_MPEG4/ISO/AVC
Duration : 1 h 16 min
Bit rate mode : Variable
Bit rate : 3 922 kb/s
Maximum bit rate : 40.0 Mb/s
Width : 1 920 pixels
Height : 1 008 pixels
Display aspect ratio : 1.905
Frame rate mode : Constant
Frame rate : 25.000 FPS
Color space : YUV
Chroma subsampling : 4:2:0
Bit depth : 8 bits
Scan type : Progressive
Bits/(Pixel*Frame) : 0.081
Stream size : 2.10 GiB (85%)
Title : Original
Language : English
Default : Yes
Forced : No
Color range : Limited
Color primaries : BT.709
Transfer characteristics : BT.709
Matrix coefficients : BT.709

Audio #1
ID : 2
Format : AC-3
Format/Info : Audio Coding 3
Mode extension : CM (complete main)
Format settings, Endianness : Big
Codec ID : A_AC3
Duration : 1 h 16 min
Bit rate mode : Constant
Bit rate : 192 kb/s
Channel(s) : 2 channels
Channel positions : Front: L R
Sampling rate : 48.0 kHz
Frame rate : 31.250 FPS (1536 spf)
Compression mode : Lossy
Stream size : 105 MiB (4%)
Title : багатоголосий закадровий ААА-sound на замовлення Galeon Кіно
Language : Ukrainian
Default : Yes
Forced : No

Audio #2
ID : 3
Format : AC-3
Format/Info : Audio Coding 3
Mode extension : CM (complete main)
Format settings, Endianness : Big
Codec ID : A_AC3
Duration : 1 h 16 min
Bit rate mode : Constant
Bit rate : 384 kb/s
Channel(s) : 6 channels
Channel positions : Front: L C R, Side: L R, LFE
Sampling rate : 48.0 kHz
Frame rate : 31.250 FPS (1536 spf)
Compression mode : Lossy
Stream size : 210 MiB (8%)
Title : Original
Language : English
Default : No
Forced : No
Скріншоти
Джерело:
Особиста оцінка: 0 - не дивився

Рейтинг G - рейтинг стрічки, встановлений Американською асоціацією кінокомпаній

MPAA, англ. Motion Picture Association of America - Американська асоціація кінокомпаній

Рейтинг G — General audiences - Фільм демонструється без обмежень
Загальна аудиторія. Допускаються глядачі різного віку. Цей рейтинг показує, що оцінений фільм не містить нічого, що більшість батьків могли б вважати неприйнятним для перегляду або прослуховування навіть найменшими дітьми. Оголення, сексуальні сцени і сцени прийому наркотиків відсутні; насильство мінімальне; уривки діалогу можуть вийти за межі увічливої бесіди, але не виходять за межі звичайних щоденних виразів.


 Трекер:    Зареєстрований   

Завантажити / скачати мультфільм українською



відео для новачків



 Зареєстрований:   2016-12-20 01:45
 Розмір:   2.45 GB 
 Оцінка мультфільму:   8.6/10 (Голосів: 5)
   
Інші релізи
Konfucius 
Управління
Управління


З нами з: 30.09.07
Востаннє: 18.08.17
Повідомлень: 4939

2016-12-19 04:14  
Цитата з правил:
Цитата:
Оригінальна доріжка обов'язкова у всіх релізах HD, крім 720p-mini та багатосерійних.

ntrader 
Частий відвідувач


З нами з: 31.05.16
Востаннє: 17.08.17
Повідомлень: 31

2016-12-20 19:51  
Мультфільм не "пішов" після 5 хв перегляду з дитиною. Почали мотати далі, а далі ще гірше. Та і графіка якась "стрьомна"
Patriot_ukr 
VIP


З нами з: 06.04.15
Востаннє: 17.08.17
Повідомлень: 1758

2016-12-20 23:02  
ntrader
На рейтинґ імдб бажано оком глянути перед вантаженням.

Ваш часовий пояс: GMT + 2 Години

Нова тема   Відповісти