Щось / Дещо / The Thing (2011) Remux 1080p 3xUkr/Eng | Sub Eng

Нові коментарі

Нова тема   Відповісти
Останній раз роздавалося go44 (2017-08-16)
Автор Повідомлення
staf777 
Відео Гуртом - підтримка та поширення
Відео Гуртом - підтримка та поширення


З нами з: 16.11.16
Востаннє: 16.08.17
Повідомлень: 522

2016-12-16 19:05  
Щось / Дещо / The Thing (2011) Remux 1080p 3xUkr/Eng | Sub Eng

Щось / Дещо / The Thing (2011) Remux 1080p 3xUkr/Eng | Sub Eng


Жанр: Фантастика, жахи
Країна: США, Канада



Кінокомпанія: Universal Pictures, Morgan Creek Productions, Strike Entertainment
Режисер: Маттіс ван Хайнінґен мол.
Актори: Мері Елізабет Вінстед, Джоел Едґертон, Ульріх Томсен, Адевале Акіннуойе-Аґбадже...

Сюжет:
Наукова експедиція виявляє в Антарктиці потерпілий аварію інопланетний космічний корабель. Група відчайдушних вчених проникає в нього і несподівано для самих себе відкриває ящик Пандори. Серед непрохідних снігів і крижаних гір, випущене на свободу Щось влаштовує на дослідницькій станції страшну бойню.


Тривалість: 01:43:00
Якість: Remux 1080p
Відео:
кодек:
розмір кадру: 1920x1080
бітрейт: 30357 кб/с

Аудіо # 1:
мова: українська
переклад: професійний дубльований
кодек: 5.1
бітрейт: 448 кб/с

Аудіо # 2:
мова: українська
переклад: багатоголосий закадровий
кодек: 2.0
бітрейт: 192 кб/с

Аудіо # 3:
мова: українська
переклад: багатоголосий закадровий
кодек: 2.0
бітрейт: 192 кб/с

Аудіо # 4:
мова: англійська
переклад: оригінал
кодек: -HD MA 5.1
бітрейт: 3600 кб/с

Аудіо # 5:
мова: англійська
переклад: коментарі
кодек: 2.0
бітрейт: 192 кб/с

Субтитри:
мова: англійська
тип: пререндерні
формат: PGS
Info
General
Unique ID : 222412264774059977152681509620789223123 (0xA7530B4859C91C7CA1F6A0A939271ED3)
Complete name : M:\Фільми в HD\Фантастика\The Thing (2011) Remux 1080p[Hurtom].
Format :
Format version : Version 4 / Version 2
File size : 25.2 GiB
Duration : 1h 43mn
Overall bit rate : 35.0 Mbps
Movie name : The Thing (2011) Remux 1080p[Hurtom]
Encoded date : UTC 2016-12-17 11:38:43
Writing application : mkvmerge v9.5.0 ('Quiet Fire') 64bit
Writing library : libebml v1.3.4 + libmatroska v1.4.5
Attachements : cover.jpg..jpg

Video
ID : 1
Format : VC-1
Format profile : [email protected]
Codec ID : V_MS/VFW/FOURCC / WVC1
Codec ID/Hint : Microsoft
Duration : 1h 43mn
Bit rate : 30.4 Mbps
Width : 1 920 pixels
Height : 1 080 pixels
Display aspect ratio : 16:9
Frame rate mode : Constant
Frame rate : 23.976 (24000/1001) fps
Color space : YUV
Chroma subsampling : 4:2:0
Bit depth : 8 bits
Scan type : Progressive
Compression mode : Lossy
Bits/(Pixel*Frame) : 0.611
Stream size : 21.8 GiB (87%)
Title : The Thing (2011) Remux 1080p[Hurtom]
Default : Yes
Forced : No

Audio #1
ID : 2
Format : AC-3
Format/Info : Audio Coding 3
Mode extension : CM (complete main)
Format settings, Endianness : Big
Codec ID : A_AC3
Duration : 1h 43mn
Bit rate mode : Constant
Bit rate : 448 Kbps
Channel(s) : 6 channels
Channel positions : Front: L C R, Side: L R, LFE
Sampling rate : 48.0 KHz
Frame rate : 31.250 fps (1536 spf)
Compression mode : Lossy
Delay relative to video : 42ms
Stream size : 330 MiB (1%)
Title : [UA-DUB], 3/2 (L,C,R,l,r) + LFE ch, ~448 kbps
Language : Ukrainian
Default : No
Forced : Yes

Audio #2
ID : 3
Format : AC-3
Format/Info : Audio Coding 3
Mode extension : CM (complete main)
Format settings, Endianness : Big
Codec ID : A_AC3
Duration : 1h 43mn
Bit rate mode : Constant
Bit rate : 192 Kbps
Channel(s) : 2 channels
Channel positions : Front: L R
Sampling rate : 48.0 KHz
Frame rate : 31.250 fps (1536 spf)
Compression mode : Lossy
Delay relative to video : 42ms
Stream size : 141 MiB (1%)
Title : [UA-MVO-ICTV] , 2/0 (L,R) ch, ~192 kbps
Language : Ukrainian
Default : Yes
Forced : Yes

Audio #3
ID : 4
Format : AC-3
Format/Info : Audio Coding 3
Mode extension : CM (complete main)
Format settings, Endianness : Big
Codec ID : A_AC3
Duration : 1h 43mn
Bit rate mode : Constant
Bit rate : 192 Kbps
Channel(s) : 2 channels
Channel positions : Front: L R
Sampling rate : 48.0 KHz
Frame rate : 31.250 fps (1536 spf)
Compression mode : Lossy
Delay relative to video : 42ms
Stream size : 141 MiB (1%)
Title : [UA-MVO-НЛО-ТВ] , 2/0 (L,R) ch, ~192 kbps
Language : Ukrainian
Default : No
Forced : Yes

Audio #4
ID : 5
Format :
Format/Info : Digital Theater Systems
Format profile : MA / Core
Mode : 16
Format settings, Endianness : Big
Codec ID : A_DTS
Duration : 1h 43mn
Bit rate mode : Variable / Constant
Bit rate : 3 600 Kbps / 1 509 Kbps
Channel(s) : 6 channels
Channel positions : Front: L C R, Side: L R, LFE
Sampling rate : 48.0 KHz
Frame rate : 93.750 fps (512 spf)
Bit depth : 24 bits
Compression mode : Lossless / Lossy
Delay relative to video : 42ms
Stream size : 2.59 GiB (10%)
Title : English: 48 kHz/24-bit, -HD MA 5.1, ~3600 kbps
Language : English
Default : No
Forced : No

Audio #5
ID : 6
Format : AC-3
Format/Info : Audio Coding 3
Format profile : Dolby Digital
Mode extension : CM (complete main)
Format settings, Endianness : Big
Codec ID : A_AC3
Duration : 1h 43mn
Bit rate mode : Constant
Bit rate : 192 Kbps
Channel(s) : 2 channels
Channel positions : Front: L R
Sampling rate : 48.0 KHz
Frame rate : 31.250 fps (1536 spf)
Compression mode : Lossy
Delay relative to video : 42ms
Stream size : 141 MiB (1%)
Language : English
Default : No
Forced : No

Text
ID : 7
Format : PGS
Muxing mode : zlib
Codec ID : S_HDMV/PGS
Codec ID/Info : Picture based subtitle format used on BDs/HD-DVDs
Duration : 1h 36mn
Bit rate : 6 240 bps
Count of elements : 1702
Stream size : 4.29 MiB (0%)
Language : English
Default : Yes
Forced : No
Скріншоти
Джерело: &
Особиста оцінка: 10 - без зайвих вагань рекомендую всім!


Золотий реліз (завантажене не впливає на рейтинг)
 Трекер:    Зареєстрований   

Завантажити / скачати фільм українською



відео для новачків



 Зареєстрований:   2016-12-17 18:29
 Розмір:   25.18 GB 
 Оцінка фільму:   8.6/10 (Голосів: 7)
   
Інші релізи
   Щось / Дещо / The Thing (2011) 3xUkr patriot2305  2 / 0   1.73 GB   2014-11-29 16:52 
   Щось / Дещо / The Thing (2011) 720p 3xUkr/Eng | Sub Eng Sando7  3 / 0   6.52 GB   2014-11-24 16:47 
   Щось / Дещо / The Thing (2011) 2xUkr/Eng AngryBirdsUA  2 / 0   2.24 GB   2013-05-12 23:57 
staf777 
Відео Гуртом - підтримка та поширення
Відео Гуртом - підтримка та поширення


З нами з: 16.11.16
Востаннє: 16.08.17
Повідомлень: 522

2016-12-18 10:28  
Більш відомий фільм Джона Карпентера: https://toloka.to/t78100
Ваш часовий пояс: GMT + 2 Години

Нова тема   Відповісти