Закоханий Шекспір / Shakespeare in Love (1998) 1080p Ukr/Eng | Sub Eng

Нові коментарі

Нова тема   Відповісти
Автор Повідомлення
staf777 
Відео Гуртом - підтримка та поширення
Відео Гуртом - підтримка та поширення


З нами з: 16.11.16
Востаннє: 16.08.17
Повідомлень: 522

2016-12-15 17:07  
Закоханий Шекспір / Shakespeare in Love (1998) 1080p Ukr/Eng | Sub Eng

Закоханий Шекспір / Shakespeare in Love (1998) 1080p Ukr/Eng | Sub Eng
Український постер


Жанр: комедія, мелодрама, драма
Країна: США, Великобританія



Кінокомпанія: Bedford Falls Productions | Miramax Films | Universal Pictures
Режисер: Джон Медден
Актори: Джозеф Файнс, Гвінет Пелтроу, Джеффрі Раш, Бен Аффлек, Том Уїлкінсон, Колін Ферт, Джуді Денч, Марк Уїльямс, Саймон Келлоу, Стів О`Доннелл

Сюжет:
1594 рік. Молодий драматург Вільям Шекспір знаходиться в творчій кризі: муза покинула його, грошей немає, господар театру вимагає від автора нову п'єсу в найкоротший термін. І коли, здавалося б, у письменника не залишається жодної надії на отримання нового натхнення, в його життя вторгається сама Любов в особі чарівної аристократки Віоли. Під виглядом молодого актора дівчина наймається в трупу театру, щоб зіграти головну чоловічу роль в п'єсі «Ромео і Джульєта». Віола не тільки віддана прихильниця маестро Шекспіра, але і прекрасна актриса. Існує лише одна заковика: Віола заручена з поважним дворянином, який планує відвезти майбутню дружину в далеку англійську колонію.


Тривалість: 02:03:38
Якість: 1080p
Відео:
кодек:
розмір кадру: 1918x820
бітрейт: 15200 кб/с

Аудіо # 1:
мова: українська
переклад: двоголосий закадровий
кодек: 5.1
бітрейт: 320 кб/с

Аудіо # 2:
мова: англійська
переклад: оригінал
кодек: 5.1
бітрейт: 1509 кб/с

Субтитри:
мова: англійська
тип: програмні (м'які)
формат: *.srt
Info
General
Unique ID : 193914058615908274473739322425148247659 (0x91E27D3D0986B86A948AF28B90750E6B)
Complete name : M:\Фільми в HD\Драма\Shakespeare in Love (1998) 1080p [Hurtom].
Format :
Format version : Version 4 / Version 2
File size : 14.7 GiB
Duration : 2h 3mn
Overall bit rate : 17.0 Mbps
Movie name : Shakespeare in Love (1998) 1080p [Hurtom]
Encoded date : UTC 2016-12-15 15:16:18
Writing application : mkvmerge v9.5.0 ('Quiet Fire') 64bit
Writing library : libebml v1.3.4 + libmatroska v1.4.5
Attachements : cover.jpg..jpg

Video
ID : 1
Format : AVC
Format/Info : Advanced Video Codec
Format profile : [email protected]
Format settings, CABAC : Yes
Format settings, ReFrames : 5 frames
Codec ID : V_MPEG4/ISO/AVC
Duration : 2h 3mn
Bit rate : 15.2 Mbps
Width : 1 916 pixels
Height : 820 pixels
Display aspect ratio : 2.35:1
Frame rate mode : Constant
Frame rate : 23.976 (23976/1000) fps
Color space : YUV
Chroma subsampling : 4:2:0
Bit depth : 8 bits
Scan type : Progressive
Bits/(Pixel*Frame) : 0.404
Stream size : 13.1 GiB (89%)
Title : Shakespeare in Love (1998) 1080p
Writing library : core 148 r2744+55 950084e t_mod_Custom [[email protected] X86_64]
Encoding settings : cabac=1 / ref=5 / deblock=1:-3:-3 / analyse=0x3:0x133 / me=umh / subme=10 / psy=1 / fade_compensate=0.00 / psy_rd=1.00:0.05 / mixed_ref=1 / me_range=24 / chroma_me=1 / trellis=2 / 8x8dct=1 / cqm=0 / deadzone=21,11 / fast_pskip=1 / chroma_qp_offset=-3 / threads=6 / lookahead_threads=1 / sliced_threads=0 / nr=0 / decimate=1 / interlaced=0 / bluray_compat=0 / constrained_intra=0 / fgo=0 / bframes=8 / b_pyramid=2 / b_adapt=2 / b_bias=0 / direct=3 / weightb=1 / open_gop=0 / weightp=2 / keyint=250 / keyint_min=23 / scenecut=40 / intra_refresh=0 / rc=2pass / mbtree=0 / bitrate=15200 / ratetol=1.0 / qcomp=0.65 / qpmin=0:0:0 / qpmax=69:69:69 / qpstep=4 / cplxblur=20.0 / qblur=0.5 / ip_ratio=1.30 / pb_ratio=1.20 / aq=3:0.80 / aq-sensitivity=10.00 / aq-factor=1.00:1.00:1.00 / aq2=0 / aq3=0
Language : English
Default : Yes
Forced : No
Color range : Limited
Matrix coefficients : BT.709

Audio #1
ID : 2
Format : AC-3
Format/Info : Audio Coding 3
Mode extension : CM (complete main)
Format settings, Endianness : Big
Codec ID : A_AC3
Duration : 2h 3mn
Bit rate mode : Constant
Bit rate : 320 Kbps
Channel(s) : 6 channels
Channel positions : Front: L C R, Side: L R, LFE
Sampling rate : 48.0 KHz
Frame rate : 31.250 fps (1536 spf)
Compression mode : Lossy
Stream size : 283 MiB (2%)
Title : 1+1 двоголосий закадровий
Language : Ukrainian
Default : Yes
Forced : Yes

Audio #2
ID : 3
Format :
Format/Info : Digital Theater Systems
Mode : 16
Format settings, Endianness : Big
Codec ID : A_DTS
Duration : 2h 3mn
Bit rate mode : Constant
Bit rate : 1 509 Kbps
Channel(s) : 6 channels
Channel positions : Front: L C R, Side: L R, LFE
Sampling rate : 48.0 KHz
Frame rate : 93.750 fps (512 spf)
Bit depth : 24 bits
Compression mode : Lossy
Stream size : 1.30 GiB (9%)
Title : English: 48 kHz/16-bit, 5.1, ~1509 kbps
Language : English
Default : No
Forced : No

Text
ID : 4
Format : UTF-8
Codec ID : S_TEXT/UTF8
Codec ID/Info : UTF-8 Plain Text
Duration : 1h 55mn
Bit rate : 63 bps
Count of elements : 1460
Stream size : 53.9 KiB (0%)
Language : English
Default : No
Forced : No
Скріншоти
Джерело: &
Український постер - thefir


Срібний реліз (на рейтинг впливає 50% завантаженого)
 Трекер:    Зареєстрований   

Завантажити / скачати фільм українською



відео для новачків



 Зареєстрований:   2016-12-16 18:04
 Розмір:   14.7 GB 
 Оцінка фільму:   7.5/10 (Голосів: 4)
   
Інші релізи
Ваш часовий пояс: GMT + 2 Години

Нова тема   Відповісти