Лелеки / Storks (2016) 1080p 3D [HalfOverUnder] Ukr/Eng | Sub Eng

Нові коментарі

Нова тема   Відповісти
Автор Повідомлення
-VipeR- 
VIP


З нами з: 17.07.08
Востаннє: 16.08.17
Повідомлень: 289

2016-12-15 16:06  
Лелеки / Storks (2016) 1080p 3D [HalfOverUnder] Ukr/Eng | Sub Eng

Лелеки / Storks (2016) 1080p 3D [HalfOverUnder] Ukr/Eng | Sub Eng


Жанр: анімація, комедія, сімейний
Країна: США



Кінокомпанія: Warner Bros. Pictures, Warner Bros. Animation
Режисер: Ніколас Столер, Даґ Світленд
Актори: Енді Семберґ, Келсі Ґреммер, Дженніфер Еністон, Тай Бурелл, Кіґен-Майкл Кі, Денні Трехо

Сюжет:
Лелеки приносять дітей ... і робили це вони до недавнього часу. Зараз вони доставляють пакунки для інтернет-гіганта Лелечамалеча.com. Молодший – кращий лелека-кур'єр в компанії. Молодшого повинні були підвищити, але ненароком він активує машину з виробництва дітей, яка створює милу і некеровану дівчинку-немовля. Молодший і його подруга Тюльпан, єдина людина на Лелековій Горі, разом з немовлям переживуть дивовижні пригоди, які можуть змінити життя багатьох сімей і відновити справжнє призначення лелек в світі.


Тривалість: 01:26:57
Якість: 1080p 3D [HalfOverUnder] by Ash61
Відео:
кодек:
розмір кадру: 1920 х 1080
бітрейт:13.9 мбіт/с

Аудіо # 1:
мова: українська
переклад: професійний дубльований
кодек: 2.0
бітрейт: 192 кб/с

Аудіо # 2:
мова: англійська
переклад: оригінал
кодек: 5.1
бітрейт: 640 кб/с

Субтитри:
мова: українська (Форсовані) by Ash61
тип: програмні (м'які)
формат: *.srt

Субтитри:
мова: англійська (Повні, Форсовані)
тип: програмні (м'які)
формат: *.srt
Info
Код:
General
Unique ID                      : 219280735551447772723996912617249435001 (0xA4F7EEF8B6DD0A9CBA695404A82DED79)
Complete name                  : D:\3D\Мультики\Storks (2016) 1080p 3D [Ukr Eng].
Format                         :
Format version                 : Version 4 / Version 2
File size                      : 8.96 GiB
Duration                       : 1h 26mn
Overall bit rate               : 14.7 Mbps
Movie name                     : Аисты / Storks (2016) в 3Д
Encoded date                   : UTC 2016-12-15 09:41:24
Writing application            : mkvmerge v8.8.0 ('Wind at my back') 64bit
Writing library                : libebml v1.3.3 + libmatroska v1.4.4
Cover                          : Yes
Attachments                    : cover.jpg

Video
ID                             : 1
Format                         : AVC
Format/Info                    : Advanced Video Codec
Format profile                 : [email protected]
Format settings, CABAC         : Yes
Format settings, ReFrames      : 4 frames
Codec ID                       : V_MPEG4/ISO/AVC
Duration                       : 1h 26mn
Bit rate                       : 13.9 Mbps
Width                          : 1 920 pixels
Height                         : 1 080 pixels
Display aspect ratio           : 16:9
Frame rate mode                : Constant
Frame rate                     : 23.976 (24000/1001) fps
Color space                    : YUV
Chroma subsampling             : 4:2:0
Bit depth                      : 8 bits
Scan type                      : Progressive
Bits/(Pixel*Frame)             : 0.280
Stream size                    : 8.45 GiB (94%)
Title                          : by Ash61
Writing library                : core 146 r2538 121396c
Encoding settings              : cabac=1 / ref=4 / deblock=1:-3:-3 / analyse=0x3:0x113 / me=umh / subme=10 / psy=1 / psy_rd=1.00:0.00 / mixed_ref=1 / me_range=32 / chroma_me=1 / trellis=2 / 8x8dct=1 / cqm=0 / deadzone=21,11 / fast_pskip=1 / chroma_qp_offset=-2 / threads=12 / lookahead_threads=3 / sliced_threads=0 / nr=0 / decimate=1 / interlaced=0 / bluray_compat=0 / constrained_intra=0 / bframes=12 / b_pyramid=2 / b_adapt=2 / b_bias=0 / direct=3 / weightb=1 / open_gop=0 / weightp=2 / keyint=250 / keyint_min=23 / scenecut=40 / intra_refresh=0 / rc_lookahead=60 / rc=crf / mbtree=1 / crf=15.5 / qcomp=0.70 / qpmin=0 / qpmax=69 / qpstep=4 / vbv_maxrate=40000 / vbv_bufsize=30000 / crf_max=0.0 / nal_hrd=none / filler=0 / frame-packing=4 / ip_ratio=1.40 / aq=1:0.70
Language                       : English
Default                        : Yes
Forced                         : No

Audio #1
ID                             : 2
Format                         : AC-3
Format/Info                    : Audio Coding 3
Mode extension                 : CM (complete main)
Format settings, Endianness    : Big
Codec ID                       : A_AC3
Duration                       : 1h 26mn
Bit rate mode                  : Constant
Bit rate                       : 192 Kbps
Channel(s)                     : 2 channels
Channel positions              : Front: L R
Sampling rate                  : 48.0 KHz
Frame rate                     : 31.250 fps (1536 spf)
Compression mode               : Lossy
Stream size                    : 119 MiB (1%)
Title                          : Дубляж - Line (моно)
Language                       : Ukrainian
Default                        : Yes
Forced                         : Yes

Audio #2
ID                             : 3
Format                         : AC-3
Format/Info                    : Audio Coding 3
Mode extension                 : CM (complete main)
Format settings, Endianness    : Big
Codec ID                       : A_AC3
Duration                       : 1h 26mn
Bit rate mode                  : Constant
Bit rate                       : 640 Kbps
Channel(s)                     : 6 channels
Channel positions              : Front: L C R, Side: L R, LFE
Sampling rate                  : 48.0 KHz
Frame rate                     : 31.250 fps (1536 spf)
Compression mode               : Lossy
Stream size                    : 398 MiB (4%)
Title                          : Original
Language                       : English
Default                        : No
Forced                         : No

Text #1
ID                             : 4
Format                         : UTF-8
Codec ID                       : S_TEXT/UTF8
Codec ID/Info                  : UTF-8 Plain Text
Duration                       : 1h 4mn
Bit rate                       : 2 bps
Count of elements              : 27
Stream size                    : 997 Bytes (0%)
Title                          : Форсовані (ash61)
Language                       : Ukrainian
Default                        : Yes
Forced                         : Yes

Text #2
ID                             : 5
Format                         : UTF-8
Codec ID                       : S_TEXT/UTF8
Codec ID/Info                  : UTF-8 Plain Text
Duration                       : 1h 20mn
Bit rate                       : 71 bps
Count of elements              : 1460
Stream size                    : 42.3 KiB (0%)
Title                          : Full
Language                       : English
Default                        : No
Forced                         : No

Text #3
ID                             : 6
Format                         : UTF-8
Codec ID                       : S_TEXT/UTF8
Codec ID/Info                  : UTF-8 Plain Text
Duration                       : 1h 22mn
Bit rate                       : 82 bps
Count of elements              : 1707
Stream size                    : 49.6 KiB (0%)
Title                          : SDH
Language                       : English
Default                        : No
Forced                         : No

Menu
00:00:00.000                   : :1
00:10:26.500                   : :2
00:20:35.733                   : :3
00:30:24.404                   : :4
00:39:30.034                   : :5
00:50:24.478                   : :6
00:59:24.434                   : :7
01:07:06.021                   : :8
01:14:28.296                   : :9
01:20:53.597                   : :10
Скріншоти



Джерело: &
Особиста оцінка: 0 - не дивився

Відео для перегляду на 3D обладнанні!


 Трекер:    Зареєстрований   

Завантажити / скачати мультфільм українською



відео для новачків



 Зареєстрований:   2016-12-15 16:06
 Розмір:   8.96 GB 
 Оцінка мультфільму:   9.2/10 (Голосів: 29)
   
Інші релізи
   Лелеки / Storks (2016) 720p-mini Drool  11 / 4   1.69 GB   2016-12-12 09:21 
   Лелеки / Storks (2016) 1080p Ukr/Eng | Sub Eng Electroz  73 / 4   4.49 GB   2016-12-07 23:50 
   Лелеки / Storks (2016) AVC AngryBirdsUA  79 / 3   1.45 GB   2016-12-06 11:11 
   Лелеки / Storks (2016) 720p Ukr/Eng | Sub Eng 11FrYkT  53 / 0   2.12 GB   2016-12-05 21:19 
   Лелеки / Storks (2016) Ukr/Eng Covenant  222 / 0   1.45 GB   2016-12-05 20:57 
sandman 
Поважний учасник


З нами з: 12.08.12
Востаннє: 17.08.17
Повідомлень: 164

2016-12-15 17:07  
може, в Мультфільми краще перенести?
-VipeR- 
VIP


З нами з: 17.07.08
Востаннє: 16.08.17
Повідомлень: 289

2016-12-15 22:12  
Модератори, перенесіть, будь ласка, в "Мультфільми HD". Помилився при оформленні.
11FrYkT 
Модератор відео


З нами з: 20.02.11
Востаннє: 17.08.17
Повідомлень: 3798

2016-12-15 22:38  
-VipeR- , Ви й самі можете переносити
Цитата:
бітрейт: кб/с

вкажіть

також додайте в опис форсовані укр саби

-VipeR- 
VIP


З нами з: 17.07.08
Востаннє: 16.08.17
Повідомлень: 289

2016-12-16 00:51  
11FrYkT
Як я міг перенести? Не знайшов такої кнопки у меню редагування.

Виправив.

11FrYkT 
Модератор відео


З нами з: 20.02.11
Востаннє: 17.08.17
Повідомлень: 3798

2016-12-16 11:10  
-VipeR- , а при чому тут редагування? Ви ж не перше повідомлення редагуєте а переносите всю тему.
Зліва знизу є кнопка перенести

Neo7g 
Частий відвідувач


З нами з: 21.01.11
Востаннє: 14.08.17
Повідомлень: 27

2016-12-16 19:50  
Хороший та веселий фільм для дітвори.Дякую за 3D реліз
oster_ok 
Відео Гуртом - підтримка та поширення
Відео Гуртом - підтримка та поширення


З нами з: 20.11.11
Востаннє: 13.08.17
Повідомлень: 75

2016-12-16 19:57  
хороший мультфільм..місьцями навіть сміявся)
e.savchuk 
Новенький


З нами з: 23.11.16
Востаннє: 26.01.17
Повідомлень: 1

2017-01-03 20:48  
буде 5.1?
boroznaya 
VIP


З нами з: 02.11.12
Востаннє: 16.08.17
Повідомлень: 2264

2017-01-06 21:46  
e.savchuk написано:
буде 5.1?

Мені також цікаво!

Uberwinder 
Свій


З нами з: 18.11.16
Востаннє: 17.08.17
Повідомлень: 110

2017-03-28 20:29  
Переклад супер! Сам мультфільм теж досить пристойний, місцями навіть дотепний.
Ваш часовий пояс: GMT + 2 Години

Нова тема   Відповісти