Сезон полювання: байки з лісу / Open Season: Scared Silly (2015) Remux 1080p Ukr/Eng | Sub Ukr/Eng

Нові коментарі

Нова тема   Відповісти
Автор Повідомлення
staf777 
Відео Гуртом - підтримка та поширення
Відео Гуртом - підтримка та поширення


З нами з: 16.11.16
Востаннє: 16.08.17
Повідомлень: 522

2016-12-15 00:31  
Сезон полювання: байки з лісу / Open Season: Scared Silly (2015) Remux 1080p Ukr/Eng | Sub Ukr/Eng

Сезон полювання: байки з лісу / Open Season: Scared Silly (2015) Remux 1080p Ukr/Eng | Sub Ukr/Eng


Жанр: анімація, пригодницький, комедія
Країна: США



Кінокомпанія: Sony Pictures Animation
Режисер: Девід Фейс
Актори: Вільям Таунсенд, Мелісса Стурм, Тревор Деваль та інші.

Сюжет:
Oлень Елліот, такса Сосиска і їх друзі домовляються відучити ведмедя Бугу боятися всього на світі. Почувши біля нічного багаття байку про страшного вовка-перевертня, могутній грізлі зовсім втратив спокій і став вести себе як боягузлива миша. Через це у компанії зриваються класні канікули. Щоб «злякати» марні ведмежі страхи, Елліот і Сосиска споряджають експедицію в Темний Ліс, відкриваючи на його найзагадковішого мешканця ... свій сезон полювання. Але всі минулі пригоди тьмяніють у порівнянні з тим, що чекає лісову команду в цей раз. Запаморочливі погоні, прикольні жарти і круті сюжетні повороти - в першій мульт-комедії літа.


Тривалість: 01:24:45
Якість: Remux 1080p
Відео:
кодек:
розмір кадру: 1920x1080
бітрейт: 23330 кб/с

Аудіо # 1:
мова: українська
переклад: професійний дубльований
кодек: 2.0
бітрейт: 192 кб/с

Аудіо # 2:
мова: англійська
переклад: оригінал
кодек: -HD 5.1
бітрейт: 2171 кб/с

Аудіо # 3:
мова: англійська
переклад: коментарі
кодек: 2.0
бітрейт: 192 кб/с

Субтитри # 1-2:
мова: українська (форсовані, повні)
тип: пререндерні
формат: PGS

Субтитри 3-5:
мова: англійська
тип: пререндерні
формат: PGS
Info
General
Unique ID : 188014039797238553341877654568446686261 (0x8D722FDA0F311C17A177976FA9977435)
Complete name : M:\HD-Club\OPEN_SEASON_SCARED_SILLY_REMUX_HDCLUB\BDMV\STREAM\Open Season Scared Silly (2015) Remux 1080p [Hurtom].
Format :
Format version : Version 4 / Version 2
File size : 15.4 GiB
Duration : 1h 24mn
Overall bit rate mode : Variable
Overall bit rate : 26.0 Mbps
Movie name : Open Season: Scared Silly (2015) Remux 1080p [Hurtom].
Encoded date : UTC 2016-12-15 10:39:24
Writing application : mkvmerge v9.5.0 ('Quiet Fire') 64bit
Writing library : libebml v1.3.4 + libmatroska v1.4.5
Attachements : cover.jpg..jpg

Video
ID : 1
Format : AVC
Format/Info : Advanced Video Codec
Format profile : [email protected]
Format settings, CABAC : Yes
Format settings, ReFrames : 2 frames
Codec ID : V_MPEG4/ISO/AVC
Duration : 1h 24mn
Bit rate mode : Variable
Bit rate : 23.3 Mbps
Width : 1 920 pixels
Height : 1 080 pixels
Display aspect ratio : 16:9
Frame rate mode : Constant
Frame rate : 23.976 (24000/1001) fps
Color space : YUV
Chroma subsampling : 4:2:0
Bit depth : 8 bits
Scan type : Progressive
Bits/(Pixel*Frame) : 0.469
Stream size : 13.8 GiB (90%)
Title : Open Season: Scared Silly (2015) Remux 1080p
Default : Yes
Forced : No

Audio #1
ID : 2
Format : AC-3
Format/Info : Audio Coding 3
Mode extension : CM (complete main)
Format settings, Endianness : Big
Codec ID : A_AC3
Duration : 1h 24mn
Bit rate mode : Constant
Bit rate : 192 Kbps
Channel(s) : 2 channels
Channel positions : Front: L R
Sampling rate : 48.0 KHz
Frame rate : 31.250 fps (1536 spf)
Compression mode : Lossy
Stream size : 116 MiB (1%)
Title : Ukrainian: 48 kHz, , 2/0 (L,R) ch, ~192.00 kbps avg | iTunes Russia|
Language : Ukrainian
Default : Yes
Forced : Yes

Audio #2
ID : 3
Format :
Format/Info : Digital Theater Systems
Format profile : MA / Core
Mode : 16
Format settings, Endianness : Big
Codec ID : A_DTS
Duration : 1h 24mn
Bit rate mode : Variable / Constant
Bit rate : 2 171 Kbps / 1 509 Kbps
Channel(s) : 6 channels
Channel positions : Front: L C R, Side: L R, LFE
Sampling rate : 48.0 KHz
Frame rate : 93.750 fps (512 spf)
Bit depth : 16 bits
Compression mode : Lossless / Lossy
Stream size : 1.29 GiB (8%)
Title : English: 48 kHz/16-bit, -HD MA 5.1, ~2171.00 kbps avg
Language : English
Default : No
Forced : No

Audio #3
ID : 4
Format : AC-3
Format/Info : Audio Coding 3
Format profile : Dolby Digital
Mode extension : CM (complete main)
Format settings, Endianness : Big
Codec ID : A_AC3
Duration : 1h 24mn
Bit rate mode : Constant
Bit rate : 192 Kbps
Channel(s) : 2 channels
Channel positions : Front: L R
Sampling rate : 48.0 KHz
Frame rate : 31.250 fps (1536 spf)
Compression mode : Lossy
Stream size : 116 MiB (1%)
Title : English: 48 kHz, , 2/0 (L,R) ch, ~192.00 kbps avg |Feature Commentary with Director David Feiss|
Language : English
Default : No
Forced : No

Text #1
ID : 5
Format : PGS
Muxing mode : zlib
Codec ID : S_HDMV/PGS
Codec ID/Info : Picture based subtitle format used on BDs/HD-DVDs
Duration : 54mn 16s
Bit rate : 687 bps
Count of elements : 58
Stream size : 273 KiB (0%)
Language : Ukrainian
Default : Yes
Forced : No

Text #2
ID : 6
Format : PGS
Muxing mode : zlib
Codec ID : S_HDMV/PGS
Codec ID/Info : Picture based subtitle format used on BDs/HD-DVDs
Duration : 1h 19mn
Bit rate : 30.0 Kbps
Count of elements : 2310
Stream size : 17.0 MiB (0%)
Language : Ukrainian
Default : No
Forced : No

Text #3
ID : 7
Format : PGS
Muxing mode : zlib
Codec ID : S_HDMV/PGS
Codec ID/Info : Picture based subtitle format used on BDs/HD-DVDs
Duration : 1h 19mn
Bit rate : 23.4 Kbps
Count of elements : 2938
Stream size : 13.4 MiB (0%)
Language : English
Default : No
Forced : No

Text #4
ID : 8
Format : PGS
Muxing mode : zlib
Codec ID : S_HDMV/PGS
Codec ID/Info : Picture based subtitle format used on BDs/HD-DVDs
Duration : 1h 19mn
Bit rate : 20.9 Kbps
Count of elements : 2288
Stream size : 11.8 MiB (0%)
Language : English
Default : No
Forced : No

Text #5
ID : 9
Format : PGS
Muxing mode : zlib
Codec ID : S_HDMV/PGS
Codec ID/Info : Picture based subtitle format used on BDs/HD-DVDs
Duration : 1h 21mn
Bit rate : 29.6 Kbps
Count of elements : 3180
Stream size : 17.2 MiB (0%)
Language : English
Default : No
Forced : No
Скріншоти
Джерело: &
Особиста оцінка: 10 - без зайвих вагань рекомендую всім!


Золотий реліз (завантажене не впливає на рейтинг)
 Трекер:    Зареєстрований   

Завантажити / скачати мультфільм українською



відео для новачків



 Зареєстрований:   2016-12-15 14:49
 Розмір:   15.39 GB 
 Оцінка мультфільму:   10/10 (Голосів: 5)
   
Ваш часовий пояс: GMT + 2 Години

Нова тема   Відповісти