Полярний Експрес / The Polar Express (2004) Remux 1080p 2xUkr/Eng | Sub Ukr/Eng

Нові коментарі

Нова тема   Відповісти
Автор Повідомлення
Premer_Joker 
Частий відвідувач


З нами з: 22.01.13
Востаннє: 19.08.17
Повідомлень: 34

2016-12-15 00:31  
Полярний Експрес / The Polar Express (2004) Remux 1080p 2xUkr/Eng | Sub Ukr/Eng

Полярний Експрес / The Polar Express (2004) Remux 1080p 2xUkr/Eng | Sub Ukr/Eng


Жанр: Анімація, сімейний, пригодницький
Країна: США



Режисер: Роберт Земекіс
Актори: Том Хенкс, Леслі Хартер Земекіс, Едді Дизен, Нона М. Гайї, Пітер Сколарі , Брендан Кінг, Енді Пеллик, Джош Елі

Сюжет:
Це історія про хлопчика, що сумнівається в існуванні Санта-Клауса. Потрапивши на таємничий "Полярний експрес", що прямує до Північного Полюса, він залишає позаду всі свої сумніви. І поки Різдвяна ніч опускається на сплячий світ, пасажири швидкісного потягу поспішають у Північний Полюс, зустрічаючи на своєму шляху пригоди та небезпеки, що підстерігають їх в темних лісах, зловісних горах і крижаній тундрі.


Тривалість: 01:39:56
Якість: Remux
Відео:
кодек:
розмір кадру: 1920 х 1080
бітрейт: 13 700 кб/с

Аудіо # 1:
мова: українська
переклад: багатоголосий закадровий | "Так Треба Продакшн" на замовлення ТК
кодек: 2.0
бітрейт: 192 кб/с

Аудіо # 2:
мова: українська
переклад: багатоголосий закадровий
кодек: 1.0
бітрейт: 128 кб/с

Аудіо # 3:
мова: англійська
переклад: оригінал
кодек: 5.1
бітрейт: 640 кб/с

Субтитри:
мова: українська
тип: програмні (м'які)
формат: *.srt

Субтитри:
мова: англійська
тип: програмні (м'які)
формат: *.srt
Info
General
Unique ID : 239499219732375978482648853950292058224 (0xB42DDF3471E6EF49A535677982CC6070)
Complete name : D:\47\The Polar Express (2004) Remux 1080p [2xUkr,Eng] [Sub Ukr,Eng].
Format :
Format version : Version 4 / Version 2
File size : 10.3 GiB
Duration : 1 h 39 min
Overall bit rate : 14.7 Mb/s
Movie name : The Polar Express (2004) Remux 1080p 2xUkr/Eng | Sub Ukr/Eng
Encoded date : UTC 2016-12-14 20:59:22
Writing application : mkvmerge v9.6.0 ('Slave To Your Mind') 64bit
Writing library : libebml v1.3.4 + libmatroska v1.4.5

Video
ID : 1
Format : VC-1
Format profile : [email protected]
Codec ID : V_MS/VFW/FOURCC / WVC1
Codec ID/Hint : Microsoft
Duration : 1 h 39 min
Bit rate : 13.7 Mb/s
Width : 1 920 pixels
Height : 1 080 pixels
Display aspect ratio : 16:9
Frame rate mode : Constant
Frame rate : 23.976 (24000/1001) FPS
Color space : YUV
Chroma subsampling : 4:2:0
Bit depth : 8 bits
Scan type : Progressive
Compression mode : Lossy
Bits/(Pixel*Frame) : 0.276
Stream size : 9.59 GiB (93%)
Title : The Polar Express (2004) Remux 1080p 2xUkr/Eng | Sub Ukr/Eng
Default : Yes
Forced : No

Audio #1
ID : 2
Format : AC-3
Format/Info : Audio Coding 3
Mode extension : CM (complete main)
Format settings, Endianness : Big
Codec ID : A_AC3
Duration : 1 h 39 min
Bit rate mode : Constant
Bit rate : 192 kb/s
Channel(s) : 2 channels
Channel positions : Front: L R
Sampling rate : 48.0 kHz
Frame rate : 31.250 FPS (1536 spf)
Bit depth : 16 bits
Compression mode : Lossy
Delay relative to video : 2 s 0 ms
Stream size : 137 MiB (1%)
Title : "ТакТреба"
Language : Ukrainian
Default : Yes
Forced : Yes

Audio #2
ID : 3
Format : AC-3
Format/Info : Audio Coding 3
Mode extension : CM (complete main)
Format settings, Endianness : Big
Codec ID : A_AC3
Duration : 1 h 39 min
Bit rate mode : Constant
Bit rate : 128 kb/s
Channel(s) : 1 channel
Channel positions : Front: C
Sampling rate : 48.0 kHz
Frame rate : 31.250 FPS (1536 spf)
Bit depth : 16 bits
Compression mode : Lossy
Delay relative to video : 2 s 0 ms
Stream size : 91.5 MiB (1%)
Title : ICTV
Language : Ukrainian
Default : No
Forced : No

Audio #3
ID : 4
Format : AC-3
Format/Info : Audio Coding 3
Mode extension : CM (complete main)
Format settings, Endianness : Big
Codec ID : A_AC3
Duration : 1 h 39 min
Bit rate mode : Constant
Bit rate : 640 kb/s
Channel(s) : 6 channels
Channel positions : Front: L C R, Side: L R, LFE
Sampling rate : 48.0 kHz
Frame rate : 31.250 FPS (1536 spf)
Bit depth : 16 bits
Compression mode : Lossy
Stream size : 457 MiB (4%)
Title : Original
Language : English
Default : No
Forced : No

Text #1
ID : 5
Format : UTF-8
Codec ID : S_TEXT/UTF8
Codec ID/Info : UTF-8 Plain Text
Duration : 1 h 38 min
Bit rate : 49 b/s
Count of elements : 824
Stream size : 35.9 KiB (0%)
Title : Full
Language : Ukrainian
Default : Yes
Forced : No

Text #2
ID : 6
Format : PGS
Muxing mode : zlib
Codec ID : S_HDMV/PGS
Codec ID/Info : Picture based subtitle format used on BDs/HD-DVDs
Duration : 1 h 39 min
Bit rate : 9 533 b/s
Count of elements : 1872
Stream size : 6.76 MiB (0%)
Title : Full
Language : English
Default : No
Forced : No

Menu
00:00:00.000 : :Chapter 01
00:05:07.473 : :Chapter 02
00:09:46.919 : :Chapter 03
00:15:16.415 : :Chapter 04
00:18:19.765 : :Chapter 05
00:23:08.220 : :Chapter 06
00:28:07.519 : :Chapter 07
00:33:43.688 : :Chapter 08
00:35:25.289 : :Chapter 09
00:41:37.328 : :Chapter 10
00:44:45.015 : :Chapter 11
00:47:06.156 : :Chapter 12
00:49:18.622 : :Chapter 13
00:53:25.869 : :Chapter 14
00:57:18.435 : :Chapter 15
01:01:08.998 : :Chapter 16
01:05:55.785 : :Chapter 17
01:09:55.191 : :Chapter 18
01:12:56.205 : :Chapter 19
01:16:28.250 : :Chapter 20
01:19:37.939 : :Chapter 21
01:21:51.406 : :Chapter 22
01:27:10.058 : :Chapter 23
01:31:21.142 : :Chapter 24
01:40:06.625 : :Chapter 25
Скріншоти


Джерело:
За запис українських доріжок подяка п.xslim

Особиста оцінка: 9 - давно не бачив настільки якісне кіно


Золотий реліз (завантажене не впливає на рейтинг)
 Трекер:    Зареєстрований   

Завантажити / скачати мультфільм українською



відео для новачків



 Зареєстрований:   2016-12-15 00:31
 Розмір:   10.26 GB 
 Оцінка мультфільму:   10/10 (Голосів: 9)
   
Ваш часовий пояс: GMT + 2 Години

Нова тема   Відповісти