Зіткнення [Режисерська версія] / Crash [Director's Cut] (2004) 720p Ukr/Eng | Sub Eng

Нові коментарі

Нова тема   Відповісти
Автор Повідомлення
TPEM 
Відео Гуртом - фільмокрай
Відео Гуртом - фільмокрай


З нами з: 30.01.09
Востаннє: 14.12.17
Повідомлень: 404

2016-12-13 23:35  
Зіткнення [Режисерська версія] / Crash [Director's Cut] (2004) 720p Ukr/Eng | Sub Eng
Зіткнення [Режисерська версія] / Crash [Director's Cut] (2004) 720p Ukr/Eng | Sub Eng

Ми різні, але приречені зіткнутись...



Жанр: трилер, драма, кримінал
Країна: США, Німеччина





Кінокомпанія: Bob Yari Productions, DEJ Productions, Blackfriars Bridge Films
Режисер: Пол Хеґіс
Актори: Сандра Баллок, Дон Чідл, Тенді Ньютон, Теренс Говард, Лоретта Девін, Брендан Фрейзер, Метт Діллон, Дженніфер Еспозіто, Кріс "Лудакріс" Бріджес, Раян Філліп, Майкл Пенья

Сюжет:
З давніх часів закон боровся зі злочинами, порядок - з хаосом, захисник - з жертвою. Вічне протистояння, вічний бій. І якщо поліцейські - це порядок, то громадяни - це закон.
Тільки чи громадяни, яких вважають порядними і законослухняними, насправді дотримуються цих законів? І чи варто довіряти всім поліцейським? Хтось, прикрившись законослухняністю або своїм значком, як тільки інші відвернуться, чинить беззаконня і перестає бути справжнім праведником...
Нагороди і номінації
Academy Awards, USA
2006 - "Оскар"

Нагорода: Найкращий фільм року
Нагорода: Найкращий сценарій - Пол Хеґіс, Роберт Мореско
Нагорода: Найкращий монтаж - Х'юджс Вінборн

Номінація: Найкраща чоловіча роль другого плану - Метт Ділон
Номінація: Найкращий режисер - Пол Хеґіс
Номінація: Найкраща пісня - «In the Deep»
Тривалість: 01:55:00 [Режисерська версія] - Порівняння з театральною версією
Якість: 720p [Hybrid]
Відео:
кодек:
розмір кадру: 1280 x 544
бітрейт: 7483 кбіт/с
примітка:
hdclub (переклад igor911) написано:
- Відеоряд з італійського блурея;
- Відео розширених частин, ориг.звук та субтитри взято з американського блурея;
- Іспанський блурей було використано для заміни частин з вшитими субтитрами;
- Розділи було взято з DVD;
- Італійський блурей має кращу якість відео та кращу зернистість, також у ньому менша блочність в порівнянні з американським.
- Створено англійські форсовані субтитри, також вони додані до повних субтитрів.


Аудіо # 1:
мова: українська
переклад: багатоголосий закадровий
кодек: 2.0
бітрейт: 192 кбіт/с

Аудіо # 2:
мова: англійська
переклад: оригінал
кодек: 5.1
бітрейт: 1509 кбіт/с

Джерело озвучення:


Субтитри:
мова: англійська
тип: програмні (м'які)
формат: *.srt

Субтитри:
мова: англійська
тип: програмні (форсовані)
формат: *.srt
Info
General
Unique ID : 188174585098156168977685692793903222829 (0x8D911B58A454A737AC75B469A749902D)
Complete name : E:\uTorrent\Crash [Director's Cut] (2004) [Ukr,Eng] 720p [Hurtom].
Format :
Format version : Version 4 / Version 2
File size : 7.53 GiB
Duration : 1h 55mn
Overall bit rate : 9 370 Kbps
Movie name : Crash [Director's Cut] (2004) Ukr/Eng - Project Video Hurtom
Encoded date : UTC 2016-12-13 23:15:01
Writing application : mkvmerge v9.6.0 ('Slave To Your Mind') 64bit
Writing library : libebml v1.3.4 + libmatroska v1.4.5
Attachements : cover.jpg
DURATION : 01:55:00.864000000
NUMBER_OF_FRAMES : 215652
NUMBER_OF_BYTES : 165620736
_STATISTICS_WRITING_APP : mkvmerge v9.6.0 ('Slave To Your Mind') 64bit
_STATISTICS_WRITING_DATE_UT : 2016-12-13 23:15:01
_STATISTICS_TAGS : BPS DURATION NUMBER_OF_FRAMES NUMBER_OF_BYTES

Video
ID : 1
Format : AVC
Format/Info : Advanced Video Codec
Format profile : [email protected]
Format settings, CABAC : Yes
Format settings, ReFrames : 12 frames
Codec ID : V_MPEG4/ISO/AVC
Duration : 1h 55mn
Bit rate : 7 483 Kbps
Width : 1 280 pixels
Height : 544 pixels
Display aspect ratio : 2.35:1
Frame rate mode : Constant
Frame rate : 23.976 fps
Color space : YUV
Chroma subsampling : 4:2:0
Bit depth : 8 bits
Scan type : Progressive
Bits/(Pixel*Frame) : 0.448
Stream size : 6.01 GiB (80%)
Title : Crash [Director's Cut] (2004) - Release for HDCLUB
Writing library : core 148 r2694 3b70645
Encoding settings : cabac=1 / ref=12 / deblock=1:-3:-3 / analyse=0x3:0x133 / me=umh / subme=10 / psy=1 / psy_rd=1.00:0.00 / mixed_ref=1 / me_range=24 / chroma_me=1 / trellis=2 / 8x8dct=1 / cqm=0 / deadzone=21,11 / fast_pskip=1 / chroma_qp_offset=-2 / threads=6 / lookahead_threads=1 / sliced_threads=0 / nr=0 / decimate=1 / interlaced=0 / bluray_compat=0 / constrained_intra=0 / bframes=8 / b_pyramid=2 / b_adapt=2 / b_bias=0 / direct=3 / weightb=1 / open_gop=0 / weightp=2 / keyint=250 / keyint_min=25 / scenecut=40 / intra_refresh=0 / rc_lookahead=60 / rc=crf / mbtree=0 / crf=17.0 / qcomp=0.60 / qpmin=0 / qpmax=69 / qpstep=4 / vbv_maxrate=62500 / vbv_bufsize=78125 / crf_max=0.0 / nal_hrd=none / filler=0 / ip_ratio=1.40 / pb_ratio=1.30 / aq=1:0.80
Language : English
Default : Yes
Forced : No

Audio #1
ID : 2
Format : AC-3
Format/Info : Audio Coding 3
Mode extension : CM (complete main)
Format settings, Endianness : Big
Codec ID : A_AC3
Duration : 1h 55mn
Bit rate mode : Constant
Bit rate : 192 Kbps
Channel(s) : 2 channels
Channel positions : Front: L R
Sampling rate : 48.0 KHz
Compression mode : Lossy
Stream size : 158 MiB (2%)
Title : Project Video Hurtom
Language : Ukrainian
Default : Yes
Forced : No

Audio #2
ID : 3
Format :
Format/Info : Digital Theater Systems
Mode : 16
Format settings, Endianness : Big
Codec ID : A_DTS
Duration : 1h 55mn
Bit rate mode : Constant
Bit rate : 1 509 Kbps
Channel(s) : 6 channels
Channel positions : Front: L C R, Side: L R, LFE
Sampling rate : 48.0 KHz
Bit depth : 16 bits
Compression mode : Lossy
Stream size : 1.21 GiB (16%)
Title : Original
Language : English
Default : No
Forced : No

Text #1
ID : 4
Format : UTF-8
Codec ID : S_TEXT/UTF8
Codec ID/Info : UTF-8 Plain Text
Language : English
Default : No
Forced : No

Text #2
ID : 5
Format : UTF-8
Codec ID : S_TEXT/UTF8
Codec ID/Info : UTF-8 Plain Text
Title : Forced
Language : English
Default : No
Forced : No

Menu
00:00:00.000 : en:Worlds Collide
00:05:53.986 : en:Stereotyping
00:10:02.501 : en:Joy Ride
00:15:24.123 : en:Not the Vehicle
00:22:35.887 : en:Monsters in the Closet
00:30:35.667 : en:Not Going to Let Go
00:33:26.704 : en:Just Cause
00:38:29.140 : en:Back and Forward
00:43:38.449 : en:You're the Expert
00:49:26.530 : en:Bad Day
00:55:22.485 : en:Negligence
01:00:26.289 : en:Protect and Serve
01:06:32.154 : en:Situation Is Complicated
01:12:20.002 : en:Hitching a Ride
01:16:48.637 : en:Friend of Mine
01:21:15.036 : en:My Angel
01:24:11.413 : en:Good Son
01:27:08.923 : en:Just Pulling Over
01:32:29.410 : en:My Love
01:36:35.456 : en:To Protect Us
01:41:15.903 : en:Long Night
01:44:41.775 : en:I Love You
01:47:39.319 : en:Free to Go
01:50:59.252 : en:End Credits
Скріншоти









Слова подяки написано:
За українську доріжку з VHS - robotron005, під режисерську версію - aalleexx85, постер - Gelios

Джерело:

[b]Особиста оцінка:
10 - без зайвих вагань рекомендую всім!


Срібний реліз (на рейтинг впливає 50% завантаженого)
 Трекер:    Зареєстрований   

Завантажити / скачати фільм українською



відео для новачків



 Зареєстрований:   2016-12-14 03:21
 Розмір:   7.53 GB 
 Оцінка фільму:   9.7/10 (Голосів: 13)
   
Інші релізи
   Зіткнення / Crash (2004) Ukr/Eng robotron005  10 / 0   1.91 GB   2016-11-27 18:18 
besconst 
Новенький


З нами з: 10.03.12
Востаннє: 14.12.17
Повідомлень: 17

2016-12-14 08:29  
тільки Сандра Б-У-ллок
igor911 
Відео Гуртом
Відео Гуртом


З нами з: 18.01.08
Востаннє: 15.12.17
Повідомлень: 8501

2016-12-14 11:42  
TPEM, в розділі HD скріншоти мають бути в PNG форматі, перероби, будь ласка.
TPEM 
Відео Гуртом - фільмокрай
Відео Гуртом - фільмокрай


З нами з: 30.01.09
Востаннє: 14.12.17
Повідомлень: 404

2016-12-14 20:33  
igor911, замінив
Віктор 
VIP


З нами з: 09.01.10
Востаннє: 05.12.17
Повідомлень: 8682

2016-12-15 17:10  
А чому не згадано robotron005 ? Саме він придбав vhs, оцифрував і виклав https://toloka.to/t77839
TPEM 
Відео Гуртом - фільмокрай
Відео Гуртом - фільмокрай


З нами з: 30.01.09
Востаннє: 14.12.17
Повідомлень: 404

2016-12-20 00:06  
Всіх згадали, всім спасибі! Happy
Maters 
VIP


З нами з: 27.03.12
Востаннє: 14.12.17
Повідомлень: 1344

2017-06-03 13:18  
TPEM написано:
10 - без зайвих вагань рекомендую всім!

Таки так!

kryk-v.ya. 
Поважний учасник


З нами з: 14.02.14
Востаннє: 14.12.17
Повідомлень: 238

2017-06-04 11:46  
besconst написано:
тільки Сандра Б-У-ллок


Б-А-ллок...

igor911 
Відео Гуртом
Відео Гуртом


З нами з: 18.01.08
Востаннє: 15.12.17
Повідомлень: 8501

2017-06-05 08:49  
kryk-v.ya. написано:
Б-А-ллок
виправив
boroznaya 
VIP


З нами з: 02.11.12
Востаннє: 14.12.17
Повідомлень: 2380

2017-09-14 20:09  
Багато чула-читала про цей фільм, та все якось не було нагоди глянути, а шкода...
Це просто неймовірно вражаючий фільм, який змушує задуматись і переглянути свої погляди на життя.
Оцінити і подякувати за те, що маєш, та домогтись того, що є дійсно необхідним.
Читала багато негативних відгуків у попередніх релізах і не розумію, як даний фільм може не сподобатись...
Абсурд, люди добрі...
Починайте дивитись справжнє кіно!
8/10!

Ваш часовий пояс: GMT + 2 Години

Нова тема   Відповісти