Полярний Експрес / The Polar Express (2004) 1080p 3D [Half OverUnder] 2xUkr/Eng | Sub Ukr/Eng

Нові коментарі

Нова тема   Відповісти
Останній раз роздавалося Premer_Joker (2017-08-17)
Автор Повідомлення
Premer_Joker 
Частий відвідувач


З нами з: 22.01.13
Востаннє: 11.08.17
Повідомлень: 34

2016-12-14 00:15  
Полярний Експрес / The Polar Express (2004) 1080p 3D [Half OverUnder] 2xUkr/Eng | Sub Ukr/Eng

Полярний Експрес / The Polar Express (2004) 1080p 3D [Half OverUnder] 2xUkr/Eng | Sub Ukr/Eng


Жанр: Анімація, сімейний, пригодницький
Країна: США



Режисер: Роберт Земекіс
Актори: Том Хенкс, Леслі Хартер Земекіс, Едді Дизен, Нона М. Гайї, Пітер Сколарі , Брендан Кінг, Енді Пеллик, Джош Елі

Сюжет:
Це історія про хлопчика, що сумнівається в існуванні Санта-Клауса. Потрапивши на таємничий "Полярний експрес", що прямує до Північного Полюса, він залишає позаду всі свої сумніви. І поки Різдвяна ніч опускається на сплячий світ, пасажири швидкісного потягу поспішають у Північний Полюс, зустрічаючи на своєму шляху пригоди та небезпеки, що підстерігають їх в темних лісах, зловісних горах і крижаній тундрі.


Тривалість: 01:40:04
Якість: 1080p 3D [HalfOU]
Відео:
кодек:
розмір кадру: 1920 х 1080
бітрейт: 12 500 кб/с
формат 3D: HalfOU / Вертикальна стереопара
порядок ракурсів: лівий ракурс перший

Аудіо # 1:
мова: українська
переклад: багатоголосий закадровий | "Так Треба Продакшн" на замовлення ТК
кодек: 2.0
бітрейт: 192 кб/с

Аудіо # 2:
мова: українська
переклад: багатоголосий закадровий
кодек: 1.0
бітрейт: 128 кб/с

Аудіо # 3:
мова: англійська
переклад: оригінал
кодек: 5.1
бітрейт: 640 кб/с

Субтитри:
мова: українська
тип: програмні (м'які)
формат: *.srt

Субтитри:
мова: англійська
тип: програмні (м'які)
формат: *.srt
Info
General
Unique ID : 187998260173671765519806470286286919505 (0x8D6F25DB3591472A95295E8D3EE61751)
Complete name : D:\47\The Polar Express 3D (2004) 1080p HalfOU (HDMaNiAcS).
Format :
Format version : Version 4 / Version 2
File size : 9.41 GiB
Duration : 1 h 40 min
Overall bit rate : 13.5 Mb/s
Movie name : The Polar Express (2004) 1080p 3D [Half OverUnder] 2xUkr/Eng | Sub Ukr/Eng (Rip by HDMaNiAcS)
Encoded date : UTC 2016-12-13 20:33:39
Writing application : mkvmerge v9.6.0 ('Slave To Your Mind') 64bit
Writing library : libebml v1.3.4 + libmatroska v1.4.5
Cover : Yes
Attachments : log.txt / cover.jpg

Video
ID : 1
Format : AVC
Format/Info : Advanced Video Codec
Format profile : [email protected]
Format settings, CABAC : Yes
Format settings, ReFrames : 4 frames
Codec ID : V_MPEG4/ISO/AVC
Duration : 1 h 40 min
Bit rate : 12.5 Mb/s
Width : 1 920 pixels
Height : 1 080 pixels
Display aspect ratio : 16:9
Frame rate mode : Constant
Frame rate : 23.976 (24000/1001) FPS
Color space : YUV
Chroma subsampling : 4:2:0
Bit depth : 8 bits
Scan type : Progressive
Bits/(Pixel*Frame) : 0.251
Stream size : 8.74 GiB (93%)
Title : The Polar Express 3D (2004)
Writing library : core 128 r2216 198a7ea
Encoding settings : cabac=1 / ref=4 / deblock=1:-3:-3 / analyse=0x3:0x113 / me=tesa / subme=11 / psy=1 / psy_rd=0.90:0.00 / mixed_ref=1 / me_range=48 / chroma_me=1 / trellis=2 / 8x8dct=1 / cqm=0 / deadzone=21,11 / fast_pskip=0 / chroma_qp_offset=-2 / threads=12 / lookahead_threads=2 / sliced_threads=0 / nr=0 / decimate=0 / interlaced=0 / bluray_compat=0 / constrained_intra=0 / bframes=7 / b_pyramid=2 / b_adapt=2 / b_bias=0 / direct=3 / weightb=1 / open_gop=0 / weightp=2 / keyint=250 / keyint_min=23 / scenecut=40 / intra_refresh=0 / rc=2pass / mbtree=0 / bitrate=12500 / ratetol=1.0 / qcomp=0.60 / qpmin=0 / qpmax=69 / qpstep=4 / cplxblur=20.0 / qblur=0.5 / ip_ratio=1.40 / pb_ratio=1.30 / aq=1:0.70
Language : English
Default : Yes
Forced : No

Audio #1
ID : 2
Format : AC-3
Format/Info : Audio Coding 3
Mode extension : CM (complete main)
Format settings, Endianness : Big
Codec ID : A_AC3
Duration : 1 h 39 min
Bit rate mode : Constant
Bit rate : 192 kb/s
Channel(s) : 2 channels
Channel positions : Front: L R
Sampling rate : 48.0 kHz
Frame rate : 31.250 FPS (1536 spf)
Bit depth : 16 bits
Compression mode : Lossy
Delay relative to video : 200 ms
Stream size : 137 MiB (1%)
Title : "ТакТреба"
Language : Ukrainian
Default : Yes
Forced : Yes

Audio #2
ID : 3
Format : AC-3
Format/Info : Audio Coding 3
Mode extension : CM (complete main)
Format settings, Endianness : Big
Codec ID : A_AC3
Duration : 1 h 39 min
Bit rate mode : Constant
Bit rate : 128 kb/s
Channel(s) : 1 channel
Channel positions : Front: C
Sampling rate : 48.0 kHz
Frame rate : 31.250 FPS (1536 spf)
Bit depth : 16 bits
Compression mode : Lossy
Delay relative to video : 200 ms
Stream size : 91.5 MiB (1%)
Title : ICTV
Language : Ukrainian
Default : No
Forced : No

Audio #3
ID : 4
Format : AC-3
Format/Info : Audio Coding 3
Mode extension : CM (complete main)
Format settings, Endianness : Big
Codec ID : A_AC3
Duration : 1 h 40 min
Bit rate mode : Constant
Bit rate : 640 kb/s
Channel(s) : 6 channels
Channel positions : Front: L C R, Side: L R, LFE
Sampling rate : 48.0 kHz
Frame rate : 31.250 FPS (1536 spf)
Bit depth : 16 bits
Compression mode : Lossy
Stream size : 458 MiB (5%)
Title : Original BD
Language : English
Default : No
Forced : No

Text #1
ID : 5
Format : UTF-8
Codec ID : S_TEXT/UTF8
Codec ID/Info : UTF-8 Plain Text
Duration : 1 h 38 min
Bit rate : 49 b/s
Count of elements : 824
Stream size : 35.9 KiB (0%)
Title : Full
Language : Ukrainian
Default : No
Forced : No

Text #2
ID : 6
Format : UTF-8
Codec ID : S_TEXT/UTF8
Codec ID/Info : UTF-8 Plain Text
Duration : 1 h 30 min
Bit rate : 39 b/s
Count of elements : 831
Stream size : 26.0 KiB (0%)
Title : Full
Language : English
Default : No
Forced : No

Menu
00:00:00.000 : :Chapter 01
00:05:07.473 : :Chapter 02
00:09:46.919 : :Chapter 03
00:15:16.415 : :Chapter 04
00:18:19.765 : :Chapter 05
00:23:08.220 : :Chapter 06
00:28:07.519 : :Chapter 07
00:33:43.688 : :Chapter 08
00:35:25.289 : :Chapter 09
00:41:37.328 : :Chapter 10
00:44:45.015 : :Chapter 11
00:47:06.156 : :Chapter 12
00:49:18.622 : :Chapter 13
00:53:25.869 : :Chapter 14
00:57:18.435 : :Chapter 15
01:01:08.998 : :Chapter 16
01:05:55.785 : :Chapter 17
01:09:55.191 : :Chapter 18
01:12:56.205 : :Chapter 19
01:16:28.250 : :Chapter 20
01:19:37.939 : :Chapter 21
01:21:51.406 : :Chapter 22
01:27:10.058 : :Chapter 23
01:31:21.142 : :Chapter 24
01:40:06.625 : :Chapter 25
Скріншоти




Джерело:
За запис українських доріжок подяка п.xslim

Особиста оцінка: 9 - давно не бачив настільки якісне кіно


Срібний реліз (на рейтинг впливає 50% завантаженого)
 Трекер:    Зареєстрований   

Завантажити / скачати мультфільм українською



відео для новачків



 Зареєстрований:   2016-12-14 00:15
 Розмір:   9.41 GB 
 Оцінка мультфільму:   10/10 (Голосів: 1)
   
Ваш часовий пояс: GMT + 2 Години

Нова тема   Відповісти